За последнюю неделю опубликовано 28 новых материалов.
Инструкция новичку Путеводитель по форуму Прокси для Telegram Показать подсказки , это бомба!

Скачать Дьявольский микроб / The Satan Bug (1965) BDRemux 1080p от ExKinoRay | A бесплатно через торрент

  • Поучаствуй (в качестве покупателя) в любых пяти совместных покупках (кроме завершённых и "Моментальных") и получи группу "Новичок" навсегда -> ссылка на раздел
  • Получай до 480 рублей за каждого приглашенного пользователя!
    представляем Вам очередное расширение партнерской программы, подробности описаны тут -> ссылка
  • 90% материалов доступно к скачиванию после простой регистрации!
    Если же ты хочешь скачивать материалы без требования оставлять отзывы то получи группу "Новичок", 10 способов повышения описаны тут -> ссылка
  • К сожалению количество битых ссылок растет и мы уже не можем их оперативно восстанавливать поэтому просим помощи у каждого нашего пользователя.
    С сегодняшнего дня, за каждую восстановленную ссылку мы заплатим Вам.
    Подробнее тут -> ссылка
  • Перенесем твои заслуги с другого ресурса!
    Мы понимаем как сложно прокачивать аккаунты на форумах, вроде раскачал аккаунт, а тут появляется ресурс в 100 раз круче но тоже с системой прокачки и снова качать аккаунт...
    Предлагаем вам перенести Ваши заслуги на другом подобном ресурсе к нам.
    Подробности описаны тут -> ссылка
  • Вы можете получать по 2.5% с каждой покупки и продажи на маркете! Подробности в теме Партнёрская программа
Если Вы не хотите скачивать, Вы всегда можетепосмотретьонлайн, просто нажмите кнопку ниже :

Открыть плеер

Torrent_Bot

Торрент-Бот
Бот форума
4 Окт 2016
93
155
20

Информация о фильме
Название: Дьявольский микроб
Оригинальное название: The Satan Bug
Год выхода: 1965
Жанр: Фантастика, триллер
Режиссер: Джон Стёрджес
В ролях: Джордж Махарис, Ричард Бейсхарт, Энн Фрэнсис, Дэна Эндрюс, Джон Ларкин, Ричард Булл, Фрэнк Саттон, Эдвард Аснер, Саймон Оукленд, Джон Андерсон

О фильме:
Адвокат Ли Барретт возвращается к выполнению обязанностей своей предыдущей должности главы охраны сверхсекретной военной лаборатории «Станция-3», расположенной в калифорнийской пустыне. Ему сообщают, что внутрь лаборатории пробрались злоумышленники и украли вирус под названием «Satan bug», который способен уничтожить все живое на земле. Барретт предполагает, что вор должен очень хорошо знать лабораторию. В конце концов, он обнаруживает, что за похищением вируса стоит безумный миллионер, выдававший себя за ученого. Теперь он угрожает выпустить вирус на волю в Лос-Анджелесе, если лаборатория не будет демонтирована…





Страна: США
Студия: The Mirisch Corporation
Продолжительность: 01:54:53
Перевод: Авторский (Виктор Сонькин)

Файл
Кодек: x264
Качество: BDRemux 1080p
Видео: MPEG-4 AVC, 33.7 Мбит/с, 1920x1080
Звук №1: Русский | AC3, 1 ch, 192 Кбит/с
Звук №2: Английский | DTS, 2 ch, 1510 Кбит/с


Инфо файл
Формат : Matroska
Версия формата : Version 2
Размер файла : 28,4 Гбайт
Продолжительность : 1 ч. 54 м.
Режим общего битрейта : Переменный
Общий поток : 35,4 Мбит/сек
Название фильма : The.Satan.Bug.1965.BDREMUX.1080p.zzZGVvv
Дата кодирования : UTC 2018-09-07 05:39:31
Программа кодирования : mkvmerge v5.8.0 ('No Sleep / Pillow') built on Sep 2 2012 15:37:04
Библиотека кодирования : libebml v1.2.3 + libmatroska v1.3.0
Attachements : cover.jpg

Видео
Идентификатор : 1
Формат : AVC
Формат/Информация : Advanced Video Codec
Профиль формата : High@L4.1
Параметр CABAC формата : Да
Параметр ReFrames формата : 4 кадра
Идентификатор кодека : V_MPEG4/ISO/AVC
Продолжительность : 1 ч. 54 м.
Вид битрейта : Переменный
Битрейт : 33,0 Мбит/сек
Максимальный битрейт : 34,0 Мбит/сек
Ширина : 1920 пикселей
Высота : 1080 пикселей
Соотношение сторон : 16:9
Режим частоты кадров : Постоянный
Частота кадров : 24,000 кадра/сек
Стандарт вещания : NTSC
Цветовое пространство : YUV
Субдискретизация насыщенности : 4:2:0
Битовая глубина : 8 бит
Тип развёртки : Прогрессивная
Бит/(Пиксели*Кадры) : 0.663
Размер потока : 26,5 Гбайт (93%)
Язык : English
Default : Да
Forced : Нет
Цветовой диапазон : Full
Основные цвета : BT.709
Характеристики трансфера : BT.709
Коэффициенты матрицы : BT.709

Аудио #1
Идентификатор : 2
Формат : AC-3
Формат/Информация : Audio Coding 3
Расширение режима : CM (complete main)
Параметр Endianness формата : Big
Идентификатор кодека : A_AC3
Продолжительность : 1 ч. 54 м.
Вид битрейта : Постоянный
Битрейт : 192 Кбит/сек
Каналы : 1 канал
Расположение каналов : Front: C
Частота : 48,0 КГц
Метод сжатия : С потерями
Размер потока : 158 Мбайт (1%)
Язык : Russian
Default : Да
Forced : Нет

Аудио #2
Идентификатор : 3
Формат : DTS
Формат/Информация : Digital Theater Systems
Режим : 16
Параметр Endianness формата : Big
Идентификатор кодека : A_DTS
Продолжительность : 1 ч. 54 м.
Вид битрейта : Постоянный
Битрейт : 1509 Кбит/сек
Каналы : 2 канала
Расположение каналов : Front: L R
Частота : 48,0 КГц
Битовая глубина : 16 бит
Метод сжатия : С потерями
Размер потока : 1,21 Гбайт (4%)
Язык : English
Default : Нет
Forced : Нет

Меню
00:00:00.000 : en:Chapter 01
00:02:25.008 : en:Chapter 02
00:08:59.299 : en:Chapter 03
00:15:41.383 : en:Chapter 04
00:23:51.258 : en:Chapter 05
00:29:17.549 : en:Chapter 06
00:33:14.341 : en:Chapter 07
00:38:17.674 : en:Chapter 08
00:44:21.258 : en:Chapter 09
00:49:23.966 : en:Chapter 10
00:54:05.924 : en:Chapter 11
01:03:32.945 : en:Chapter 12
01:08:38.153 : en:Chapter 13
01:12:53.528 : en:Chapter 14
01:21:06.778 : en:Chapter 15
01:28:54.111 : en:Chapter 16
01:35:36.403 : en:Chapter 17
01:38:41.445 : en:Chapter 18
01:43:39.445 : en:Chapter 19
01:47:02.778 : en:Chapter 20
01:50:47.611 : en:Chapter 21

Релиз от:
 

Вложения

  • 143 KB Просмотры: 1
    Личеров 0
    Сидеров 0
    Файлов 1
    Объем 28,4 GB

Привет!

Мы группа людей которые решили помочь другим в решении их проблем, а так же пользователям с поиском самых свежих и качественных инфопродуктов. За 4 с небольшим месяца мы создали этот форум на который заходят ежедневно тысячи человек и посещаемость постоянно растёт. Мы создали панель лицензирования для защиты PHP скриптов от воровства и SEO панель для мониторинга наших сайтов и выбора верной стратегии их развития. Мы надеемся что то что мы создали пригодится Вам и возможно Вы поможете нам развиваться и совершенствоваться вместе с Вами.

Статистика форума

Темы
406.550
Сообщения
464.701
Пользователи
83.402
Новый пользователь
бобёр1234

Приложения форума для iOS и Android


У ркн там нет власти ;)
Приватные разговоры
Помощь Пользователи
    Вы не присоединились ни к одной комнате.