За последнюю неделю опубликовано 28 новых материалов.
Инструкция новичку Путеводитель по форуму Прокси для Telegram Показать подсказки , это бомба!

Скачать DJ Snake - Carte Blanche [Deluxe, 24bit Hi-Res] (2020) FLAC бесплатно через торрент

  • Поучаствуй (в качестве покупателя) в любых пяти совместных покупках (кроме завершённых и "Моментальных") и получи группу "Новичок" навсегда -> ссылка на раздел
  • Получай до 480 рублей за каждого приглашенного пользователя!
    представляем Вам очередное расширение партнерской программы, подробности описаны тут -> ссылка
  • 90% материалов доступно к скачиванию после простой регистрации!
    Если же ты хочешь скачивать материалы без требования оставлять отзывы то получи группу "Новичок", 10 способов повышения описаны тут -> ссылка
  • К сожалению количество битых ссылок растет и мы уже не можем их оперативно восстанавливать поэтому просим помощи у каждого нашего пользователя.
    С сегодняшнего дня, за каждую восстановленную ссылку мы заплатим Вам.
    Подробнее тут -> ссылка
  • Перенесем твои заслуги с другого ресурса!
    Мы понимаем как сложно прокачивать аккаунты на форумах, вроде раскачал аккаунт, а тут появляется ресурс в 100 раз круче но тоже с системой прокачки и снова качать аккаунт...
    Предлагаем вам перенести Ваши заслуги на другом подобном ресурсе к нам.
    Подробности описаны тут -> ссылка
  • Вы можете получать по 2.5% с каждой покупки и продажи на маркете! Подробности в теме Партнёрская программа

Torrent_Bot

Торрент-Бот
Бот форума
4 Окт 2016
96
155
20



Название: Carte Blanche [Deluxe Edition 24bit, Hi-Res]
Исполнитель: DJ Snake
Год: 2020
Жанр: EDM, Trap, Dubstep, Hip-Hop
Страна: Франция/France

Продолжительность: 01:53:27
Формат/Кодек: FLAC
Битрейт аудио: 24/44,1


Трек-лист
01. Butterfly Effect
02. Quiet Storm ft. Zomboy
03. When The Lights Go Down
04. Recognize ft. Majid Jordan
05. No More ft. Zhu
06. Made In France ft. Tchami & Malaa and Mercer
07. Enzo ft. Sheck Wes & Offset & 21 Savage and Gucci Mane
08. Smile ft. Bryson Tiller
09. Try Me ft. Plastic Toy
10. Loco Contigo ft. J Balvin and Tyga
11. Taki Taki ft. Selena Gomez & Ozuna and Cardi B
12. Fuego ft. Sean Paul & Anitta and Tainy
13. Magenta Riddim
14. Frequency 75
15. SouthSide ft. Eptic
16. No Option ft. Burna Boy
17. Paris ft. GASHI
18. Loco Contigo ft. J Balvin & Ozuna & Nicky Jam & Natti Natasha & Darell and Sech(REMIX)
19. Loco Contigo (Cedric Gervais Remix)
20. No More (Malaa Remix)
21. SouthSide (Yultron Remix)
22. SouthSide (Riot Ten Remix)
23. SouthSide (Sullivan King Remix)
24. SouthSide (Teez Remix)
25. SouthSide (Ship Wrek Remix)
26. Made In France (Wax Motif Remix)
27. Made In France (WUKI Remix)
28. Made In France (Nitti Gritti Remix)
29. Frequency 75 (ACRAZE Remix)
30. No More (Devault Remix)
31. No More (KIYA Remix)

Дополнительная информация: Лог проверки качества
foobar2000 1.5.4 / Dynamic Range Meter 1.1.1
log date: 2021-02-17 15:03:32

--------------------------------------------------------------------------------
Analyzed: DJ Snake / Carte Blanche (Deluxe Edition)
--------------------------------------------------------------------------------

DR Peak RMS Duration Track
--------------------------------------------------------------------------------
DR5 -0.09 dB -8.53 dB 3:25 01-Butterfly Effect
DR3 0.00 dB -5.14 dB 3:46 02-Quiet Storm ft. Zomboy
DR4 0.00 dB -5.22 dB 3:48 03-When The Lights Go Down
DR5 -0.18 dB -7.44 dB 3:35 04-Recognize ft. Majid Jordan
DR6 -0.10 dB -8.29 dB 2:46 05-No More ft. Zhu
DR4 0.00 dB -6.02 dB 4:11 06-Made In France ft. Tchami & Malaa and Mercer
DR3 -0.21 dB -4.93 dB 4:08 07-Enzo ft. Sheck Wes & Offset & 21 Savage and Gucci Mane
DR5 0.00 dB -6.79 dB 3:18 08-Smile ft. Bryson Tiller
DR3 0.00 dB -5.60 dB 3:18 09-Try Me ft. Plastic Toy
DR6 0.00 dB -7.24 dB 3:05 10-Loco Contigo ft. J Balvin and Tyga
DR5 0.00 dB -7.14 dB 3:33 11-Taki Taki ft. Selena Gomez & Ozuna and Cardi B
DR6 0.00 dB -7.68 dB 3:15 12-Fuego ft. Sean Paul & Anitta and Tainy
DR4 -0.01 dB -5.44 dB 3:14 13-Magenta Riddim
DR5 -0.10 dB -7.27 dB 4:27 14-Frequency 75
DR4 0.00 dB -6.03 dB 4:13 15-SouthSide ft. Eptic
DR6 0.00 dB -6.31 dB 3:06 16-No Option ft. Burna Boy
DR5 -0.06 dB -8.63 dB 3:45 17-Paris ft. GASHI
DR7 0.00 dB -7.87 dB 5:42 18-Loco Contigo ft. J Balvin & Ozuna & Nicky Jam & Natti Natasha & Darell and Sech (REMIX)
DR3 -1.36 dB -7.09 dB 4:40 19-Loco Contigo (Cedric Gervais Remix)
DR3 0.00 dB -5.66 dB 4:31 20-No More (Malaa Remix)
DR2 0.00 dB -4.08 dB 3:57 21-SouthSide (Yultron Remix)
DR3 0.00 dB -5.60 dB 3:25 22-SouthSide (Riot Ten Remix)
DR2 -0.10 dB -5.03 dB 3:18 23-SouthSide (Sullivan King Remix)
DR2 0.00 dB -4.84 dB 3:02 24-SouthSide (Teez Remix)
DR3 0.00 dB -4.49 dB 3:19 25-SouthSide (Ship Wrek Remix)
DR4 -0.26 dB -6.38 dB 3:26 26-Made In France (Wax Motif Remix)
DR6 0.00 dB -7.57 dB 3:06 27-Made In France (WUKI Remix)
DR3 0.00 dB -4.68 dB 3:08 28-Made In France (Nitti Gritti Remix)
DR2 -0.16 dB -5.31 dB 3:04 29-Frequency 75 (ACRAZE Remix)
DR4 -0.01 dB -5.15 dB 4:17 30-No More (Devault Remix)
DR4 0.00 dB -4.61 dB 3:40 31-No More (KIYA Remix)
--------------------------------------------------------------------------------

Number of tracks: 31
Official DR value: DR4

Samplerate: 44100 Hz
Channels: 2
Bits per sample: 24
Bitrate: 1942 kbps
Codec: FLAC
================================================================================
Присоединяйся к/Join the:
 

Вложения

  • 16,9 KB Просмотры: 1
    Личеров 0
    Сидеров 0
    Файлов 34
    Объем 1,4 GB

Привет!

Мы группа людей которые решили помочь другим в решении их проблем, а так же пользователям с поиском самых свежих и качественных инфопродуктов. За 4 с небольшим месяца мы создали этот форум на который заходят ежедневно тысячи человек и посещаемость постоянно растёт. Мы создали панель лицензирования для защиты PHP скриптов от воровства и SEO панель для мониторинга наших сайтов и выбора верной стратегии их развития. Мы надеемся что то что мы создали пригодится Вам и возможно Вы поможете нам развиваться и совершенствоваться вместе с Вами.

Статистика форума

Темы
406.519
Сообщения
464.553
Пользователи
82.865
Новый пользователь
Ника Григорьева

Приложения форума для iOS и Android


У ркн там нет власти ;)
Приватные разговоры
Помощь Пользователи
    Вы не присоединились ни к одной комнате.