За последнюю неделю опубликовано 36 новых материалов.
Инструкция новичку Путеводитель по форуму Прокси для Telegram Показать подсказки , это бомба!

Скачать Дитя робота / I Am Mother (2019) WEB-DLRip-AVC от OlLanDGroup | P бесплатно через торрент

  • Поучаствуй (в качестве покупателя) в любых пяти совместных покупках (кроме завершённых и "Моментальных") и получи группу "Новичок" навсегда -> ссылка на раздел
  • Получай до 480 рублей за каждого приглашенного пользователя!
    представляем Вам очередное расширение партнерской программы, подробности описаны тут -> ссылка
  • 90% материалов доступно к скачиванию после простой регистрации!
    Если же ты хочешь скачивать материалы без требования оставлять отзывы то получи группу "Новичок", 10 способов повышения описаны тут -> ссылка
  • К сожалению количество битых ссылок растет и мы уже не можем их оперативно восстанавливать поэтому просим помощи у каждого нашего пользователя.
    С сегодняшнего дня, за каждую восстановленную ссылку мы заплатим Вам.
    Подробнее тут -> ссылка
  • Перенесем твои заслуги с другого ресурса!
    Мы понимаем как сложно прокачивать аккаунты на форумах, вроде раскачал аккаунт, а тут появляется ресурс в 100 раз круче но тоже с системой прокачки и снова качать аккаунт...
    Предлагаем вам перенести Ваши заслуги на другом подобном ресурсе к нам.
    Подробности описаны тут -> ссылка
  • Вы можете получать по 2.5% с каждой покупки и продажи на маркете! Подробности в теме Партнёрская программа
Если Вы не хотите скачивать, Вы всегда можетепосмотретьонлайн, просто нажмите кнопку ниже :

Открыть плеер

Torrent_Bot

Торрент-Бот
Бот форума
4 Окт 2016
91
163
20


Дитя робота / I Am Mother




Год выпуска: 2019
Страна: Австралия
Производство: The Penguin Empire, Southern Light Films, Rhea Films (II)
Жанр: Фантастика, триллер


Режиссёр: Грант Спьютор
В ролях: Роуз Бирн, Хилари Суэнк, Клара Ругор, Люк Хокер, Тейлия Стурзэйкер, Джейкоб Нолан, Хэйзел Сэндери, Саммер Лентон, Мэдди Лентон


Перевод: Профессиональный многоголосый | [HDRezka Studio], Профессиональный многоголосый | [СВ Студия]
Субтитры: Русские (форс., полные), Английские (полные)
Реклама: Отсутствует

Описание: После глобального катаклизма человечество вымирает. В подземном бункере автоматически активизируется аварийная программа, и робот-гуманоид «Мать» выращивает из эмбриона человеческого ребенка. Девушка, воспитанная под бережным присмотром «Матери», никогда не видела ни поверхности Земли, ни других людей. Но однажды её мир переворачивается, когда на пороге убежища появляется женщина с просьбой о помощи.




Качество: WEB-DLRip-AVC | NETFLIX Version |
Продолжительность: 01:53:32

Формат: MKV
Видео кодек: MPEG-4 AVC
Аудио кодек: AC3
Видео: 1024x428 (2.40:1), 24,000 fps, x264 ~1 782 kbps avg, 0.169 bit/pixel
Аудио #1: 48 kHz, AC3 Dolby Digital Plus, 2 (L,R) ch, ~192.00 kbps avg | RUS (HDRezka Studio)
Аудио #2: 48 kHz, AC3 Dolby Digital Plus, 3/2 (L,C,R,l,r) + LFE ch, ~448.00 kbps avg | RUS (СВ Студия)
Аудио #3: 48 kHz, AC3 Dolby Digital Plus, 3/2 (L,C,R,l,r) + LFE ch, ~448.00 kbps avg | ENG


Дата премьеры (мир): 25 января 2019
Дата премьеры (РФ): 20 июня 2019, «Вольга»
Цифровой релиз:


Релиз от:

MediaInfo
Общее
Уникальный идентификатор : 43783906310521241565318212172437765578 (0x20F0793F75AD55A4757FD9BA0AAFBDCA)
Полное имя : F:OlLanDGroupI.Am.Mother.2019.NF.WEB-DLRip(AVC).OlLanDGroup.mkv
Формат : Matroska
Версия формата : Version 4 / Version 2
Размер файла : 2,28 Гбайт
Продолжительность : 1 ч. 53 м.
Общий поток : 2870 Кбит/сек
Название фильма : I.Am.Mother.2019 #TorpedoUK#
Дата кодирования : UTC 2019-06-16 02:05:24
Программа кодирования : mkvmerge v29.0.0 ('Like It Or Not') 64-bit
Библиотека кодирования : libebml v1.3.6 + libmatroska v1.4.9

Видео
Идентификатор : 1
Формат : AVC
Формат/Информация : Advanced Video Codec
Профиль формата : [email protected]
Параметр CABAC формата : Да
Параметр ReFrames формата : 10 кадров
Идентификатор кодека : V_MPEG4/ISO/AVC
Продолжительность : 1 ч. 53 м.
Битрейт : 1782 Кбит/сек
Ширина : 1024 пикселя
Высота : 428 пикселей
Соотношение сторон : 2,40:1
Режим частоты кадров : Постоянный
Частота кадров : 24,000 кадра/сек
Цветовое пространство : YUV
Субдискретизация насыщенности : 4:2:0
Битовая глубина : 8 бит
Тип развёртки : Прогрессивная
Бит/(Пиксели*Кадры) : 0.169
Размер потока : 1,41 Гбайт (62%)
Библиотека кодирования : x264 core 146 r2538 121396c
Настройки программы : cabac=1 / ref=10 / deblock=1:-3:-3 / analyse=0x3:0x113 / me=umh / subme=10 / psy=1 / psy_rd=0.97:0.05 / mixed_ref=1 / me_range=48 / chroma_me=1 / trellis=2 / 8x8dct=1 / cqm=0 / deadzone=21,11 / fast_pskip=1 / chroma_qp_offset=-3 / threads=6 / lookahead_threads=1 / sliced_threads=0 / nr=0 / decimate=1 / interlaced=0 / bluray_compat=0 / constrained_intra=0 / bframes=11 / b_pyramid=2 / b_adapt=2 / b_bias=0 / direct=3 / weightb=1 / open_gop=0 / weightp=2 / keyint=240 / keyint_min=24 / scenecut=40 / intra_refresh=0 / rc_lookahead=40 / rc=2pass / mbtree=0 / bitrate=1782 / ratetol=1.0 / qcomp=0.60 / qpmin=0 / qpmax=69 / qpstep=4 / cplxblur=20.0 / qblur=0.5 / vbv_maxrate=50000 / vbv_bufsize=62500 / nal_hrd=none / filler=0 / ip_ratio=1.40 / pb_ratio=1.30 / aq=1:1.00
Язык : English
Default : Да
Forced : Нет

Аудио #1
Идентификатор : 2
Формат : AC-3
Формат/Информация : Audio Coding 3
Расширение режима : CM (complete main)
Параметр Endianness формата : Big
Идентификатор кодека : A_AC3
Продолжительность : 1 ч. 53 м.
Вид битрейта : Постоянный
Битрейт : 192 Кбит/сек
Каналы : 2 канала
Расположение каналов : Front: L R
Частота : 48,0 КГц
Частота кадров : 31,250 кадров/сек (1536 spf)
Битовая глубина : 16 бит
Метод сжатия : С потерями
Размер потока : 156 Мбайт (7%)
Заголовок : MVO [HDRezka Studio]
Язык : Russian
Default : Да
Forced : Нет

Аудио #2
Идентификатор : 3
Формат : AC-3
Формат/Информация : Audio Coding 3
Расширение режима : CM (complete main)
Параметр Endianness формата : Big
Идентификатор кодека : A_AC3
Продолжительность : 1 ч. 53 м.
Вид битрейта : Постоянный
Битрейт : 448 Кбит/сек
Каналы : 6 каналов
Расположение каналов : Front: L C R, Side: L R, LFE
Частота : 48,0 КГц
Частота кадров : 31,250 кадров/сек (1536 spf)
Битовая глубина : 16 бит
Метод сжатия : С потерями
Размер потока : 364 Мбайт (16%)
Заголовок : MVO [CВ Студия]
Язык : Russian
Default : Нет
Forced : Нет

Аудио #3
Идентификатор : 4
Формат : AC-3
Формат/Информация : Audio Coding 3
Расширение режима : CM (complete main)
Параметр Endianness формата : Big
Идентификатор кодека : A_AC3
Продолжительность : 1 ч. 53 м.
Вид битрейта : Постоянный
Битрейт : 448 Кбит/сек
Каналы : 6 каналов
Расположение каналов : Front: L C R, Side: L R, LFE
Частота : 48,0 КГц
Частота кадров : 31,250 кадров/сек (1536 spf)
Битовая глубина : 16 бит
Метод сжатия : С потерями
Размер потока : 364 Мбайт (16%)
Заголовок : [Original]
Язык : English
Default : Нет
Forced : Нет

Текст #1
Идентификатор : 5
Формат : UTF-8
Идентификатор кодека : S_TEXT/UTF8
Идентификатор кодека/Информация : UTF-8 Plain Text
Продолжительность : 58 м. 37 с.
Битрейт : 1 бит/сек
Count of elements : 14
Размер потока : 737 байт (0%)
Заголовок : Forced
Язык : Russian
Default : Да
Forced : Нет

Текст #2
Идентификатор : 6
Формат : UTF-8
Идентификатор кодека : S_TEXT/UTF8
Идентификатор кодека/Информация : UTF-8 Plain Text
Продолжительность : 1 ч. 45 м.
Битрейт : 51 бит/сек
Count of elements : 905
Размер потока : 39,5 Кбайт (0%)
Заголовок : Full
Язык : Russian
Default : Нет
Forced : Нет

Текст #3
Идентификатор : 7
Формат : UTF-8
Идентификатор кодека : S_TEXT/UTF8
Идентификатор кодека/Информация : UTF-8 Plain Text
Продолжительность : 1 ч. 42 м.
Битрейт : 36 бит/сек
Count of elements : 912
Размер потока : 27,7 Кбайт (0%)
Заголовок : Full
Язык : English
Default : Нет
Forced : Нет
Скриншоты


 

Вложения

  • 12,3 KB Просмотры: 1
    Личеров 0
    Сидеров 0
    Файлов 1
    Объем 2,3 GB

Привет!

Мы группа людей которые решили помочь другим в решении их проблем, а так же пользователям с поиском самых свежих и качественных инфопродуктов. За 4 с небольшим месяца мы создали этот форум на который заходят ежедневно тысячи человек и посещаемость постоянно растёт. Мы создали панель лицензирования для защиты PHP скриптов от воровства и SEO панель для мониторинга наших сайтов и выбора верной стратегии их развития. Мы надеемся что то что мы создали пригодится Вам и возможно Вы поможете нам развиваться и совершенствоваться вместе с Вами.

Статистика форума

Темы
410.488
Сообщения
469.052
Пользователи
85.749
Новый пользователь
mershmse

Приложения форума для iOS и Android


У ркн там нет власти ;)
Приватные разговоры
Помощь Пользователи
    Вы не присоединились ни к одной комнате.