За последнюю неделю опубликовано 67 новых материалов.
Инструкция новичку Путеводитель по форуму Прокси для Telegram Показать подсказки , это бомба!

Скачать Dirty Mind - 5 Singles (1990-1993) FLAC бесплатно через торрент

  • Поучаствуй (в качестве покупателя) в любых пяти совместных покупках (кроме завершённых и "Моментальных") и получи группу "Новичок" навсегда -> ссылка на раздел
  • Получай до 480 рублей за каждого приглашенного пользователя!
    представляем Вам очередное расширение партнерской программы, подробности описаны тут -> ссылка
  • 90% материалов доступно к скачиванию после простой регистрации!
    Если же ты хочешь скачивать материалы без требования оставлять отзывы то получи группу "Новичок", 10 способов повышения описаны тут -> ссылка
  • К сожалению количество битых ссылок растет и мы уже не можем их оперативно восстанавливать поэтому просим помощи у каждого нашего пользователя.
    С сегодняшнего дня, за каждую восстановленную ссылку мы заплатим Вам.
    Подробнее тут -> ссылка
  • Перенесем твои заслуги с другого ресурса!
    Мы понимаем как сложно прокачивать аккаунты на форумах, вроде раскачал аккаунт, а тут появляется ресурс в 100 раз круче но тоже с системой прокачки и снова качать аккаунт...
    Предлагаем вам перенести Ваши заслуги на другом подобном ресурсе к нам.
    Подробности описаны тут -> ссылка
  • Вы можете получать по 2.5% с каждой покупки и продажи на маркете! Подробности в теме Партнёрская программа

Torrent_Bot

Торрент-Бот
Бот форума
4 Окт 2016
102
157
20



Название: 5 Singles
Исполнитель: Dirty Mind
Год: 1990-1993
Жанр: Euro House, Italodance, Techno
Страна: Italy

Продолжительность: 01:04:45
Формат/Кодек: Flac
Битрейт аудио: Lossless


Треклист:


1990 - The Killer (Single) (12:02)
01 The Killer (Killer Mix) 06:01
02 The Killer (Techno Mix) 06:01

https://www.deezer.com/ru/album/49429352



Лог проверки качества:
ANALYZER: auCDtect: CD records authenticity detector, version 0.8.2
Copyright (c) 2004 Oleg Berngardt. All rights reserved.
Copyright (c) 2004 Alexander Djourik. All rights reserved.

FILE: 02 The Killer (Techno Mix).flac
Size: 43227830 Hash: DFFC88972CCD163E5CEA767DB5DD05DE Accuracy: -m0
Conclusion: CDDA 100%
Signature: 88062E1CCD3E903FCB4C20E6AF78955B5F8534A0
FILE: 01 The Killer (Killer Mix).flac
Size: 43209667 Hash: 383F185725E42D0E57DEED75C79DF846 Accuracy: -m0
Conclusion: CDDA 100%
Signature: EB72722537BFFD3CECF55202DD737B0984C1B73C

Dr-log:
Analyzed folder: D:ВидеоклипыconverterDirty Mind - 5 Singles 1990-1993 Flac (tracks)1990 - The Killer (Single)
----------------------------------------------------------------------------------------------
DR Peak RMS Filename
----------------------------------------------------------------------------------------------

DR11 over -14.01 dB 01 The Killer (Killer Mix).wav
DR11 over -14.23 dB 02 The Killer (Techno Mix).wav
----------------------------------------------------------------------------------------------

Number of files: 2
Official DR value: DR11


1991 - Alleluya (Single) (12:08)
01 Alleluya (Synth Mix) 06:04
02 Alleluya (Flute Mix) 06:04[/b]

https://www.deezer.com/ru/album/49429272



Лог проверки качества:
ANALYZER: auCDtect: CD records authenticity detector, version 0.8.2
Copyright (c) 2004 Oleg Berngardt. All rights reserved.
Copyright (c) 2004 Alexander Djourik. All rights reserved.

FILE: 02 Alleluya (Flute Mix).flac
Size: 43851132 Hash: 426B09FCFA323A75F34B107DA453E624 Accuracy: -m0
Conclusion: CDDA 99%
Signature: EC5060D7397DA001E377414C8BE99981EA94E945
FILE: 01 Alleluya (Synth Mix).flac
Size: 44373487 Hash: 6FBB8A4E2861E5E67FCC343F5AC56E44 Accuracy: -m0
Conclusion: CDDA 100%
Signature: 1DF3E803DDF0CB8FB38546FBD396970C27C9CF5B

Dr-log:
Analyzed folder: D:ВидеоклипыconverterDirty Mind - 5 Singles 1990-1993 Flac (tracks)1991 - Alleluya (Single)
----------------------------------------------------------------------------------------------
DR Peak RMS Filename
----------------------------------------------------------------------------------------------

DR13 -0.10 dB -15.44 dB 01 Alleluya (Synth Mix).wav
DR13 -0.10 dB -15.03 dB 02 Alleluya (Flute Mix).wav
----------------------------------------------------------------------------------------------

Number of files: 2
Official DR value: DR13

2010 (1993) - Back to the Future (Single) (00:15:17)
01 Back to the Future (Accordion Trance Mix) 05:15
02 Back to the Future (Club Mix) 05:15
03 Back to the Future (Boca Mix) 05:07

https://www.deezer.com/ru/album/601917



Лог проверки качества:
ANALYZER: auCDtect: CD records authenticity detector, version 0.8.2
Copyright (c) 2004 Oleg Berngardt. All rights reserved.
Copyright (c) 2004 Alexander Djourik. All rights reserved.

FILE: 03 Back to the Future (Boca Mix).flac
Size: 36943602 Hash: 5BBD5BDFF203363FB9874962C50D77A9 Accuracy: -m0
Conclusion: CDDA 100%
Signature: 8844329D3D1D20A1908FBA7274BBD240722E7F25
FILE: 02 Back to the Future (Club Mix).flac
Size: 37325897 Hash: 58683CDCC1F7921A004E7A3DEEE0E835 Accuracy: -m0
Conclusion: CDDA 100%
Signature: FCA1B8F1783F38CC2979BC0A8498CAAF93EA39B8
FILE: 01 Back to the Future (Accordion Trance Mix).flac
Size: 37670752 Hash: AB8E91C34F8F090459860E034D094DAA Accuracy: -m0
Conclusion: CDDA 100%
Signature: 543C3429FDFF0138E21BE5BA7EA1E1C3BB7EA85E
Dr-log:
Analyzed folder: D:ВидеоклипыconverterDirty Mind - 5 Singles 1990-1993 Flac (tracks)2010 (1993) - Back to the Future (Single)
----------------------------------------------------------------------------------------------
DR Peak RMS Filename
----------------------------------------------------------------------------------------------

DR11 -0.26 dB -12.58 dB 01 Back to the Future (Accordion Trance Mix).wav
DR11 -0.04 dB -12.87 dB 02 Back to the Future (Club Mix).wav
DR11 over -12.85 dB 03 Back to the Future (Boca Mix).wav
----------------------------------------------------------------------------------------------

Number of files: 3
Official DR value: DR11

2011 (1990) - What Time Is It (Single) (00:14:12)
01 What Time Is It (Silver Mix) 06:05
02 What Time Is It (Ambient Mix) 04:05
03 What Time Is It 04:02

https://www.deezer.com/ru/album/947531



Лог проверки качества:
ANALYZER: auCDtect: CD records authenticity detector, version 0.8.2
Copyright (c) 2004 Oleg Berngardt. All rights reserved.
Copyright (c) 2004 Alexander Djourik. All rights reserved.

FILE: 03 What Time Is It.flac
Size: 27516265 Hash: 28420DD3250D9916E0D16844135E77E1 Accuracy: -m0
Conclusion: CDDA 100%
Signature: D52EE274122EF40A9633CD8BD8D96F4096238A11
FILE: 02 What Time Is It (Ambient Mix).flac
Size: 27050900 Hash: 4C57CF0817EB838F1AFF07BA60D0DB2C Accuracy: -m0
Conclusion: CDDA 100%
Signature: 7D4BA0E69E83FB83954E9E32598E75EB4DD375DE
FILE: 01 What Time Is It (Silver Mix).flac
Size: 40815805 Hash: E71332178A0271F8EA7C10817FE7A76E Accuracy: -m0
Conclusion: CDDA 100%
Signature: 2B5191E62A5366BA10CE6387533A11B2E958D046

Dr-log:
Analyzed folder: D:ВидеоклипыconverterDirty Mind - 5 Singles 1990-1993 Flac (tracks)2011 (1990) - What Time Is It (Single)
----------------------------------------------------------------------------------------------
DR Peak RMS Filename
----------------------------------------------------------------------------------------------

DR12 -0.17 dB -14.55 dB 01 What Time Is It (Silver Mix).wav
DR12 -0.17 dB -13.40 dB 02 What Time Is It (Ambient Mix).wav
DR12 -0.17 dB -13.59 dB 03 What Time Is It.wav
----------------------------------------------------------------------------------------------

Number of files: 3
Official DR value: DR12

2011 (1993) - Mamamelo (Single) (00:10:46)
01 Mamamelo (Melo Mix) 05:39
02 Mamamelo (Mama Mix) 05:07

https://www.deezer.com/ru/album/949787



Лог проверки качества:
ANALYZER: auCDtect: CD records authenticity detector, version 0.8.2
Copyright (c) 2004 Oleg Berngardt. All rights reserved.
Copyright (c) 2004 Alexander Djourik. All rights reserved.

FILE: 02 Mamamelo (Mama Mix).flac
Size: 22478401 Hash: 1C2E00DDE7088042DF7530E81F6772FB Accuracy: -m0
Conclusion: CDDA 99%
Signature: 2D85B10EFC94BB0E5AB8FA661BF1164113A47860
FILE: 01 Mamamelo (Melo Mix).flac
Size: 24055883 Hash: 9A4C123F19878DB1004CCD2BE4158AA1 Accuracy: -m0
Conclusion: CDDA 100%
Signature: EAD489F182897A4366383E60B34A17A020AAC998
Dr-log:
Analyzed folder: D:ВидеоклипыconverterDirty Mind - 5 Singles 1990-1993 Flac (tracks)2011 (1993) - Mamamelo (Single)
----------------------------------------------------------------------------------------------
DR Peak RMS Filename
----------------------------------------------------------------------------------------------

DR14 -0.10 dB -15.64 dB 01 Mamamelo (Melo Mix).wav
DR13 -0.10 dB -14.84 dB 02 Mamamelo (Mama Mix).wav
----------------------------------------------------------------------------------------------

Number of files: 2
Official DR value: DR13
 

Вложения

  • 18,5 KB Просмотры: 0
    Личеров 0
    Сидеров 0
    Файлов 17
    Объем 409,6 MB

Привет!

Мы группа людей которые решили помочь другим в решении их проблем, а так же пользователям с поиском самых свежих и качественных инфопродуктов. За 4 с небольшим месяца мы создали этот форум на который заходят ежедневно тысячи человек и посещаемость постоянно растёт. Мы создали панель лицензирования для защиты PHP скриптов от воровства и SEO панель для мониторинга наших сайтов и выбора верной стратегии их развития. Мы надеемся что то что мы создали пригодится Вам и возможно Вы поможете нам развиваться и совершенствоваться вместе с Вами.

Статистика форума

Темы
405.464
Сообщения
462.539
Пользователи
80.613
Новый пользователь
corsica

Приложения форума для iOS и Android


У ркн там нет власти ;)
Приватные разговоры
Помощь Пользователи
    Вы не присоединились ни к одной комнате.