За последнюю неделю опубликовано 41 новых материалов.
Инструкция новичку Путеводитель по форуму Прокси для Telegram Показать подсказки , это бомба!

Скачать Дикость / Wilderness (2006) WEB-DLRip | D бесплатно через торрент

  • Поучаствуй (в качестве покупателя) в любых пяти совместных покупках (кроме завершённых и "Моментальных") и получи группу "Новичок" навсегда -> ссылка на раздел
  • Получай до 480 рублей за каждого приглашенного пользователя!
    представляем Вам очередное расширение партнерской программы, подробности описаны тут -> ссылка
  • 90% материалов доступно к скачиванию после простой регистрации!
    Если же ты хочешь скачивать материалы без требования оставлять отзывы то получи группу "Новичок", 10 способов повышения описаны тут -> ссылка
  • К сожалению количество битых ссылок растет и мы уже не можем их оперативно восстанавливать поэтому просим помощи у каждого нашего пользователя.
    С сегодняшнего дня, за каждую восстановленную ссылку мы заплатим Вам.
    Подробнее тут -> ссылка
  • Перенесем твои заслуги с другого ресурса!
    Мы понимаем как сложно прокачивать аккаунты на форумах, вроде раскачал аккаунт, а тут появляется ресурс в 100 раз круче но тоже с системой прокачки и снова качать аккаунт...
    Предлагаем вам перенести Ваши заслуги на другом подобном ресурсе к нам.
    Подробности описаны тут -> ссылка
  • Вы можете получать по 2.5% с каждой покупки и продажи на маркете! Подробности в теме Партнёрская программа
Если Вы не хотите скачивать, Вы всегда можетепосмотретьонлайн, просто нажмите кнопку ниже :

Открыть плеер

Torrent_Bot

Торрент-Бот
Бот форума
4 Окт 2016
90
168
20



Информация о фильме
Название: Дикость
Оригинальное название: Wilderness
Год выхода: 2006
Жанр: Триллер, ужасы
Режиссер: Майкл Дж. Бассет
В ролях: Шон Пертуи, Алекс Рейд, Тоби Кеббелл, Стивен Уайт, Люк Нил, Бен МакКэй, Ленора Кричлоу, Карли Грин, Адам Дикон

О фильме:
Заключенные тюрьмы Young Offenders’Institution по праву считаются одними из самых опасных преступников, которых нельзя перевоспитать и допустить к жизни в обществе. Будучи закоренелыми и опытными преступниками, их никто и ничего не могло испугать или устрашить… До тех пор, пока они не встретились лицом к лицу с нечеловеческой дикостью. На необитаемом острове, куда их забрасывают, в мире непроходимых лесов, смертельно опасных рек и крутых берегов, они становятся жертвами некоего охотника, который готов преподать им кровавый урок. Группа понимает, что вдали от цивилизации им не от кого ждать помощи. Безжалостный хищник и его свирепая свора собак постоянно дают о себе знать. Смогут ли герои объединиться перед лицом смертельной опасности и вместе дать отпор?



Страна: Великобритания
Студия: Baker Street, Ecosse Films, Maysfield Leisure Centre
Продолжительность: 01:32:33
Перевод: Дублированный
Субтитры: Нет

Файл
Формат: AVI
Качество: WEB-DLRip | [1080p.AMZN.WEB-DL.DDP2.0.x264-BLUTONiUM]
Видео: 720x400 at 23.976 fps, XviD, ~1857 kbps
Аудио: AC3, 6 ch, ~384kbps - | Русский | -

***Релиз от:-=DoMiNo=-

M/I
General
Complete name : C:UsersDoMiNoDesktopVRMДикость.(2006).WEB-DLRip.F.S.[-=DoMiNo=-].avi
Format : AVI
Format/Info : Audio Video Interleave
Format profile : OpenDML
File size : 1.46 GiB
Duration : 1 h 32 min
Overall bit rate : 2 254 kb/s

Video
ID : 0
Format : MPEG-4 Visual
Format profile : Advanced [email protected]
Format settings : BVOP2 / Custom Matrix
Format settings, BVOP : 2
Format settings, QPel : No
Format settings, GMC : No warppoints
Format settings, Matrix : Custom
Codec ID : XVID
Codec ID/Hint : XviD
Duration : 1 h 32 min
Bit rate : 1 859 kb/s
Width : 720 pixels
Height : 400 pixels
Display aspect ratio : 16:9
Frame rate : 23.976 (24000/1001) FPS
Color space : YUV
Chroma subsampling : 4:2:0
Bit depth : 8 bits
Scan type : Progressive
Compression mode : Lossy
Bits/(Pixel*Frame) : 0.269
Stream size : 1.20 GiB (82%)
Writing library : XviD 67

Audio
ID : 1
Format : AC-3
Format/Info : Audio Coding 3
Commercial name : Dolby Digital
Codec ID : 2000
Duration : 1 h 32 min
Bit rate mode : Constant
Bit rate : 384 kb/s
Channel(s) : 6 channels
Channel layout : L R C LFE Ls Rs
Sampling rate : 48.0 kHz
Frame rate : 31.250 FPS (1536 SPF)
Bit depth : 16 bits
Compression mode : Lossy
Stream size : 253 MiB (17%)
Alignment : Aligned on interleaves
Interleave, duration : 32 ms (0.77 video frame)
Service kind : Complete Main
Скриншоты
 

Вложения

  • 15,7 KB Просмотры: 1
    Личеров 0
    Сидеров 0
    Файлов 1
    Объем 1,5 GB

Привет!

Мы группа людей которые решили помочь другим в решении их проблем, а так же пользователям с поиском самых свежих и качественных инфопродуктов. За 4 с небольшим месяца мы создали этот форум на который заходят ежедневно тысячи человек и посещаемость постоянно растёт. Мы создали панель лицензирования для защиты PHP скриптов от воровства и SEO панель для мониторинга наших сайтов и выбора верной стратегии их развития. Мы надеемся что то что мы создали пригодится Вам и возможно Вы поможете нам развиваться и совершенствоваться вместе с Вами.

Статистика форума

Темы
410.968
Сообщения
469.425
Пользователи
88.507
Новый пользователь
чупокабра

Приложения форума для iOS и Android


У ркн там нет власти ;)
Приватные разговоры
Помощь Пользователи
    Вы не присоединились ни к одной комнате.