За последнюю неделю опубликовано 88 новых материалов.
Инструкция новичку Путеводитель по форуму Прокси для Telegram Показать подсказки , это бомба!

Скачать Дикость / Wilderness (2006) WEB-DL 1080p | D бесплатно через торрент

  • Поучаствуй (в качестве покупателя) в любых пяти совместных покупках (кроме завершённых и "Моментальных") и получи группу "Новичок" навсегда -> ссылка на раздел
  • Получай до 480 рублей за каждого приглашенного пользователя!
    представляем Вам очередное расширение партнерской программы, подробности описаны тут -> ссылка
  • 90% материалов доступно к скачиванию после простой регистрации!
    Если же ты хочешь скачивать материалы без требования оставлять отзывы то получи группу "Новичок", 10 способов повышения описаны тут -> ссылка
  • К сожалению количество битых ссылок растет и мы уже не можем их оперативно восстанавливать поэтому просим помощи у каждого нашего пользователя.
    С сегодняшнего дня, за каждую восстановленную ссылку мы заплатим Вам.
    Подробнее тут -> ссылка
  • Перенесем твои заслуги с другого ресурса!
    Мы понимаем как сложно прокачивать аккаунты на форумах, вроде раскачал аккаунт, а тут появляется ресурс в 100 раз круче но тоже с системой прокачки и снова качать аккаунт...
    Предлагаем вам перенести Ваши заслуги на другом подобном ресурсе к нам.
    Подробности описаны тут -> ссылка
  • Вы можете получать по 2.5% с каждой покупки и продажи на маркете! Подробности в теме Партнёрская программа
Если Вы не хотите скачивать, Вы всегда можетепосмотретьонлайн, просто нажмите кнопку ниже :

Открыть плеер

Torrent_Bot

Торрент-Бот
Бот форума
4 Окт 2016
85
173
20



Информация о фильме
Название: Дикость
Оригинальное название: Wilderness
Год выхода: 2006
Жанр: Триллер, ужасы
Режиссер: Майкл Дж. Бассет
В ролях: Шон Пертуи, Алекс Рейд, Тоби Кеббелл, Стивен Уайт, Люк Нил, Бен МакКэй, Ленора Кричлоу, Карли Грин, Адам Дикон

О фильме:
Заключенные тюрьмы Young Offenders’Institution по праву считаются одними из самых опасных преступников, которых нельзя перевоспитать и допустить к жизни в обществе. Будучи закоренелыми и опытными преступниками, их никто и ничего не могло испугать или устрашить… До тех пор, пока они не встретились лицом к лицу с нечеловеческой дикостью. На необитаемом острове, куда их забрасывают, в мире непроходимых лесов, смертельно опасных рек и крутых берегов, они становятся жертвами некоего охотника, который готов преподать им кровавый урок. Группа понимает, что вдали от цивилизации им не от кого ждать помощи. Безжалостный хищник и его свирепая свора собак постоянно дают о себе знать. Смогут ли герои объединиться перед лицом смертельной опасности и вместе дать отпор?



Страна: Великобритания
Студия: Baker Street, Ecosse Films, Maysfield Leisure Centre
Продолжительность: 01:32:33
Перевод: Дублированный

Файл
Кодек: AVC
Качество: WEB-DL 1080p | Wilderness.2006.1080p.AMZN.WEB-DL.DDP2.0.x264-BLUTONiUM
Видео: MPEG-4 AVC, 13.6 Mбит/с, 1920x1080, 23.976 кадр/с
Звук: ► Без Рекламы!
Аудио #1: Русский (АС3, 6ch, 384 Кбит/с, 48.0 KHz) Профессиональный (полное дублирование)
Аудио #2: Английский (E-АС3, 2ch, 224 Кбит/с, 48.0 KHz)
Субтитры: Русские (Full), английские
Трейлер
MediaInfo
Источник: Wilderness.2006.1080p.AMZN.WEB-DL.DDP2.0.x264-BLUTONiUM
General
Unique ID : 178442315440874342070334438616999863321 (0x863EBD67D09306E2A434D934CE8B2419)
Complete name : Wilderness.2006.WEB-DL.1080p.mkv
Format : Matroska
Format version : Version 4
File size : 9.18 GiB
Duration : 1 h 34 min
Overall bit rate : 14.0 Mb/s
Encoded date : UTC 2019-06-22 14:17:10
Writing application : mkvmerge v7.1.0 ('Good Love') 64bit built on Jul 27 2014 13:06:55
Writing library : libebml v1.3.0 + libmatroska v1.4.1

Video
ID : 1
Format : AVC
Format/Info : Advanced Video Codec
Format profile : [email protected]
Format settings : CABAC / 4 Ref Frames
Format settings, CABAC : Yes
Format settings, Reference fra : 4 frames
Codec ID : V_MPEG4/ISO/AVC
Duration : 1 h 32 min
Bit rate : 13.6 Mb/s
Width : 1 920 pixels
Height : 1 080 pixels
Display aspect ratio : 16:9
Frame rate mode : Constant
Frame rate : 23.976 (24000/1001) FPS
Color space : YUV
Chroma subsampling : 4:2:0
Bit depth : 8 bits
Scan type : Progressive
Bits/(Pixel*Frame) : 0.273
Stream size : 8.79 GiB (96%)
Language : English
Default : Yes
Forced : No
Color range : Limited
Color primaries : BT.709
Transfer characteristics : BT.709
Matrix coefficients : BT.709

Audio #1
ID : 2
Format : AC-3
Format/Info : Audio Coding 3
Commercial name : Dolby Digital
Codec ID : A_AC3
Duration : 1 h 32 min
Bit rate mode : Constant
Bit rate : 384 kb/s
Channel(s) : 6 channels
Channel layout : L R C LFE Ls Rs
Sampling rate : 48.0 kHz
Frame rate : 31.250 FPS (1536 SPF)
Bit depth : 16 bits
Compression mode : Lossy
Stream size : 253 MiB (3%)
Title : DUB
Language : Russian
Service kind : Complete Main
Default : Yes
Forced : No

Audio #2
ID : 3
Format : E-AC-3
Format/Info : Enhanced AC-3
Commercial name : Dolby Digital Plus
Codec ID : A_EAC3
Duration : 1 h 32 min
Bit rate mode : Constant
Bit rate : 224 kb/s
Channel(s) : 2 channels
Channel layout : L R
Sampling rate : 48.0 kHz
Frame rate : 31.250 FPS (1536 SPF)
Compression mode : Lossy
Stream size : 148 MiB (2%)
Language : English
Service kind : Complete Main
Default : No
Forced : No

Text #1
ID : 4
Format : UTF-8
Codec ID : S_TEXT/UTF8
Codec ID/Info : UTF-8 Plain Text
Duration : 1 h 32 min
Bit rate : 63 b/s
Count of elements : 836
Stream size : 42.7 KiB (0%)
Language : Russian
Default : No
Forced : No

Text #2
ID : 5
Format : UTF-8
Codec ID : S_TEXT/UTF8
Codec ID/Info : UTF-8 Plain Text
Duration : 1 h 33 min
Bit rate : 48 b/s
Count of elements : 1304
Stream size : 33.1 KiB (0%)
Language : English
Default : No
Forced : No
Скриншоты
 

Вложения

  • 23,9 KB Просмотры: 1
    Личеров 0
    Сидеров 0
    Файлов 1
    Объем 9,2 GB

Привет!

Мы группа людей которые решили помочь другим в решении их проблем, а так же пользователям с поиском самых свежих и качественных инфопродуктов. За 4 с небольшим месяца мы создали этот форум на который заходят ежедневно тысячи человек и посещаемость постоянно растёт. Мы создали панель лицензирования для защиты PHP скриптов от воровства и SEO панель для мониторинга наших сайтов и выбора верной стратегии их развития. Мы надеемся что то что мы создали пригодится Вам и возможно Вы поможете нам развиваться и совершенствоваться вместе с Вами.

Статистика форума

Темы
411.650
Сообщения
470.294
Пользователи
90.457
Новый пользователь
АлександрСургутХМАО

Приложения форума для iOS и Android


У ркн там нет власти ;)
Приватные разговоры
Помощь Пользователи
    Вы не присоединились ни к одной комнате.