За последнюю неделю опубликовано 84 новых материалов.
Инструкция новичку Путеводитель по форуму Прокси для Telegram Показать подсказки , это бомба!

Скачать Дикость / Wild Things (1998) BDRip 1080p от FREEISLAND | UNRATED бесплатно через торрент

  • Поучаствуй (в качестве покупателя) в любых пяти совместных покупках (кроме завершённых и "Моментальных") и получи группу "Новичок" навсегда -> ссылка на раздел
  • Получай до 480 рублей за каждого приглашенного пользователя!
    представляем Вам очередное расширение партнерской программы, подробности описаны тут -> ссылка
  • 90% материалов доступно к скачиванию после простой регистрации!
    Если же ты хочешь скачивать материалы без требования оставлять отзывы то получи группу "Новичок", 10 способов повышения описаны тут -> ссылка
  • К сожалению количество битых ссылок растет и мы уже не можем их оперативно восстанавливать поэтому просим помощи у каждого нашего пользователя.
    С сегодняшнего дня, за каждую восстановленную ссылку мы заплатим Вам.
    Подробнее тут -> ссылка
  • Перенесем твои заслуги с другого ресурса!
    Мы понимаем как сложно прокачивать аккаунты на форумах, вроде раскачал аккаунт, а тут появляется ресурс в 100 раз круче но тоже с системой прокачки и снова качать аккаунт...
    Предлагаем вам перенести Ваши заслуги на другом подобном ресурсе к нам.
    Подробности описаны тут -> ссылка
  • Вы можете получать по 2.5% с каждой покупки и продажи на маркете! Подробности в теме Партнёрская программа
Если Вы не хотите скачивать, Вы всегда можетепосмотретьонлайн, просто нажмите кнопку ниже :

Открыть плеер

Torrent_Bot

Торрент-Бот
Бот форума
4 Окт 2016
104
152
20

ДикостьWild Things«Её красота требует жертв»
Год выпуска: 1998
Страна: США
Жанр: триллер, криминал, детектив
Продолжительность: 01:54:46
Перевод: Профессиональный (дублированный)
Субтитры: Russian , English (srt)

Режиссер: Джон МакНотон



В ролях: Кевин Бейкон / Kevin Bacon (Ray Duquette), Мэтт Диллон / Matt Dillon (Sam Lombardo), Нив Кэмпбелл / Neve Campbell (Suzie Toller, $ 2 000 000 ), Тереза Расселл / Theresa Russell (Sandra Van Ryan), Дениз Ричардс / Denise Richards (Kelly Van Ryan), Дафна Рубин-Вега / Daphne Rubin-Vega (Gloria Perez), Роберт Вагнер / Robert Wagner (Tom Baxter), Билл Мюррей / Bill Murray (Ken Bowden), Кэрри Снодгресс / Carrie Snodgress (Ruby), Джефф Перри / Jeff Perry (Bryce Hunter)

Описание: Семнадцатилетняя Келли влюбляется в своего учителя Сэма. Она использует всевозможные способы, чтобы привлечь его внимание, но безрезультатно. А когда девушка не получает желаемого, она начинает мстить. Несостоявшаяся любовница обвиняет Сэма в изнасиловании.Улик явно недостаточно, пока на помощь Келли не приходит ее подруга, которая готова давать показания. Но вскоре девушка понимает, что является лишь пешкой в нечестной игре…



Рейтинг MPAA: Лицам до 17 лет обязательно присутствие взрослого
Рейтинг ВКИП: запрещено для детей



Качество: BDRip
Формат: MKV
Видео кодек: H.264 (AVC)
Аудио кодеk: AC3
Видео: 1920x800 (2.40:1), 23.976 fps, AVC, 9 200 Kbps
Аудио:
Аудио #1: AC3, 448 Kbps, 48.0 KHz, 6 ch RUS Dub
Аудио #2: AC3, 448 Kbps, 48.0 KHz, 6 ch ENG
Дополнительные дорожки
AC3, 448 Kbps, 48.0 KHz, 6 ch RUS(MVO . Видеосервис)
AC3, 448 Kbps, 48.0 KHz, 6 ch RUS(AVO . Ю.Живов)
AC3, 448 Kbps, 48.0 KHz, 6 ch RUS(AVO . В. Королев)

За подогнанный дубляж спасибо HANSMER
В 1-3 (дубляж, Видеосервис, Живов) дорогах сделано 6 вставок с озвучкой В. Королева на расширенные сцены
За выкуп чистых реплик Видеосервиса большое спасибо DaRkY, tide, alb9925
МедиаИнфо
x264 [info]: frame I:1007 Avg QP:15.94 size:188666
x264 [info]: frame P:34538 Avg QP:18.08 size: 86249
x264 [info]: frame B:129575 Avg QP:20.32 size: 36646
x264 [info]: consecutive B-frames: 1.3% 2.6% 4.9% 25.2% 15.7% 37.0% 6.2% 5.4% 1.0% 0.7%
x264 [info]: encoded 165120 frames, 4.88 fps, 9196.95 kb/s, duration 9:23:41.88
*******************************************************************************
General
Unique ID : 234559782562996921219957293390807759077 (0xB07692266ADCC5E481EA3913AD18F8E5)
Complete name : Wild Things(1998)1080p.F-HD.mkv
Format : Matroska
Format version : Version 4 / Version 2
File size : 8.09 GiB
Duration : 1h 54mn
Overall bit rate : 10.1 Mbps
Encoded date : UTC 2013-06-15 06:26:40
Writing application : mkvmerge v6.2.0 ('Promised Land') built on Apr 28 2013 12:22:01
Writing library : libebml v1.3.0 + libmatroska v1.4.0

Video
ID : 1
Format : AVC
Format/Info : Advanced Video Codec
Format profile : High@L4.1
Format settings, CABAC : Yes
Format settings, ReFrames : 5 frames
Codec ID : V_MPEG4/ISO/AVC
Duration : 1h 54mn
Bit rate : 9 200 Kbps
Width : 1 920 pixels
Height : 800 pixels
Display aspect ratio : 2.40:1
Frame rate mode : Constant
Frame rate : 23.976 fps
Color space : YUV
Chroma subsampling : 4:2:0
Bit depth : 8 bits
Scan type : Progressive
Bits/(Pixel*Frame) : 0.250
Stream size : 7.21 GiB (89%)
Writing library : x264 core 133 r2334kMod a3ac64b
Encoding settings : cabac=1 / ref=5 / deblock=1:-3:-3 / analyse=0x3:0x113 / me=umh / subme=11 / psy=1 / fade_compensate=0.00 / psy_rd=0.95:0.05 / mixed_ref=1 / me_range=48 / chroma_me=1 / trellis=2 / 8x8dct=1 / cqm=0 / deadzone=21,11 / fast_pskip=0 / chroma_qp_offset=-3 / threads=6 / lookahead_threads=1 / sliced_threads=0 / nr=0 / decimate=1 / interlaced=0 / bluray_compat=0 / constrained_intra=0 / bframes=9 / b_pyramid=2 / b_adapt=2 / b_bias=0 / direct=3 / weightb=1 / open_gop=0 / weightp=2 / keyint=250 / keyint_min=23 / scenecut=40 / intra_refresh=0 / rc_lookahead=40 / rc=2pass / mbtree=0 / bitrate=9200 / ratetol=1.0 / qcomp=0.75 / qpmin=0 / qpmax=69 / qpstep=4 / cplxblur=20.0 / qblur=0.5 / vbv_maxrate=62500 / vbv_bufsize=78125 / nal_hrd=none / ip_ratio=1.40 / pb_ratio=1.30 / aq=1:0.80
Language : English
Default : Yes
Forced : No
Matrix coefficients : BT.709

Audio #1
ID : 2
Format : AC-3
Format/Info : Audio Coding 3
Mode extension : CM (complete main)
Format settings, Endianness : Big
Codec ID : A_AC3
Duration : 1h 54mn
Bit rate mode : Constant
Bit rate : 448 Kbps
Channel(s) : 6 channels
Channel positions : Front: L C R, Side: L R, LFE
Sampling rate : 48.0 KHz
Bit depth : 16 bits
Compression mode : Lossy
Stream size : 368 MiB (4%)
Title : Дубляж
Language : Russian
Default : Yes
Forced : No

Audio #2
ID : 3
Format : AC-3
Format/Info : Audio Coding 3
Mode extension : CM (complete main)
Format settings, Endianness : Big
Codec ID : A_AC3
Duration : 1h 54mn
Bit rate mode : Constant
Bit rate : 448 Kbps
Channel(s) : 6 channels
Channel positions : Front: L C R, Side: L R, LFE
Sampling rate : 48.0 KHz
Bit depth : 16 bits
Compression mode : Lossy
Stream size : 368 MiB (4%)
Language : English
Default : No
Forced : No

Text #1
ID : 4
Format : UTF-8
Codec ID : S_TEXT/UTF8
Codec ID/Info : UTF-8 Plain Text
Language : Russian
Default : No
Forced : No

Text #2
ID : 5
Format : UTF-8
Codec ID : S_TEXT/UTF8
Codec ID/Info : UTF-8 Plain Text
Language : English
Default : No
Forced : No

Menu
00:00:00.000 : en:00:00:00.000
00:03:55.318 : en:00:03:55.318
00:13:35.023 : en:00:13:35.023
00:19:46.352 : en:00:19:46.352
00:26:08.650 : en:00:26:08.650
00:32:33.785 : en:00:32:33.785
00:40:53.326 : en:00:40:53.326
00:51:34.300 : en:00:51:34.300
00:59:59.971 : en:00:59:59.971
01:06:33.364 : en:01:06:33.364
01:13:38.956 : en:01:13:38.956
01:20:09.304 : en:01:20:09.304
01:28:21.254 : en:01:28:21.254
01:31:48.837 : en:01:31:48.837
01:34:44.929 : en:01:34:44.929
01:42:09.790 : en:01:42:09.790
Знаете ли Вы, что...
★ Роберту Дауни была предложена роль Сэма Ломбардо, но он ее отклонил.

★ Режиссёр Джон МакНотон сказал, что он удалил сцену, в которой Мэтт Диллон и Кевин Бэйкон моются вместе, так как не захотел, чтобы в картине звучали гомосексуальные нотки.

★ В интервью Бэйкон сказал, что в его контракте не было пункта об обнаженной натуре, а так как он являлся продюсером фильма, то как актёр мог подать на самого себя в суд.

★ Перед тем, как снимать сцену на реке, осветительный рабочий проверял прожекторы и заметил труп человека. Прибыла полиция и отогнала его к берегу, чтобы он не попадал в камеру. Когда сцена была снята, полицейские вытащили труп из реки.
Скриншоты





Релиз от:
 

Вложения

  • 41,5 KB Просмотры: 1
    Личеров 0
    Сидеров 0
    Файлов 1
    Объем 8,1 GB

Привет!

Мы группа людей которые решили помочь другим в решении их проблем, а так же пользователям с поиском самых свежих и качественных инфопродуктов. За 4 с небольшим месяца мы создали этот форум на который заходят ежедневно тысячи человек и посещаемость постоянно растёт. Мы создали панель лицензирования для защиты PHP скриптов от воровства и SEO панель для мониторинга наших сайтов и выбора верной стратегии их развития. Мы надеемся что то что мы создали пригодится Вам и возможно Вы поможете нам развиваться и совершенствоваться вместе с Вами.

Статистика форума

Темы
404.550
Сообщения
461.464
Пользователи
80.103
Новый пользователь
MetthewXXX

Приложения форума для iOS и Android


У ркн там нет власти ;)
Приватные разговоры
Помощь Пользователи
    Вы не присоединились ни к одной комнате.