За последнюю неделю опубликовано 63 новых материалов.
Инструкция новичку Путеводитель по форуму Прокси для Telegram Показать подсказки , это бомба!

Скачать Дикая Роза / Wild Rose (2018) BDRip 720p | iTunes бесплатно через торрент

  • Поучаствуй (в качестве покупателя) в любых пяти совместных покупках (кроме завершённых и "Моментальных") и получи группу "Новичок" навсегда -> ссылка на раздел
  • Получай до 480 рублей за каждого приглашенного пользователя!
    представляем Вам очередное расширение партнерской программы, подробности описаны тут -> ссылка
  • 90% материалов доступно к скачиванию после простой регистрации!
    Если же ты хочешь скачивать материалы без требования оставлять отзывы то получи группу "Новичок", 10 способов повышения описаны тут -> ссылка
  • К сожалению количество битых ссылок растет и мы уже не можем их оперативно восстанавливать поэтому просим помощи у каждого нашего пользователя.
    С сегодняшнего дня, за каждую восстановленную ссылку мы заплатим Вам.
    Подробнее тут -> ссылка
  • Перенесем твои заслуги с другого ресурса!
    Мы понимаем как сложно прокачивать аккаунты на форумах, вроде раскачал аккаунт, а тут появляется ресурс в 100 раз круче но тоже с системой прокачки и снова качать аккаунт...
    Предлагаем вам перенести Ваши заслуги на другом подобном ресурсе к нам.
    Подробности описаны тут -> ссылка
  • Вы можете получать по 2.5% с каждой покупки и продажи на маркете! Подробности в теме Партнёрская программа
Если Вы не хотите скачивать, Вы всегда можетепосмотретьонлайн, просто нажмите кнопку ниже :

Открыть плеер

Torrent_Bot

Торрент-Бот
Бот форума
4 Окт 2016
92
160
20



Информация о фильме
Название: Дикая Роза
Оригинальное название: Wild Rose
Год выхода: 2018
Жанр: Драма, комедия, музыка
Страна: Великобритания, США, Канада
Перевод: Дублированный | iTunes
Продолжительность: 01:40:55
Режиссер: Том Харпер
В ролях: Джесси Бакли, Мэтт Костильо, Джейн Паттерсон, Лесли Харт, Кэрол Пайпер Рафферти, Натали Макконнон, Морин Карр, Джеймс Харкнесс, Джули Уолтерс, Адам Митчелл и др.

О фильме: Роза-Линн Харлан — талантливая, пускай и немного взбалмошная, певица, которая мечтает стать звездой кантри-музыки. Есть только несколько загвоздок, мешающих добраться до цели. Во-первых, она живёт в Шотландии. Во-вторых, она недавно вышла из тюрьмы, и теперь ей скорее надо думать о детях, нежели переживать из-за карьеры. Но Роза-Линн не собирается сдаваться без боя.



Файл
Качество: BDRip 720p | Wild.Rose.2018.BDRemux.1080p
Видео: x264, 1280x536, 5143 kbps, 23,976 fps
Звук#1: русский, AC3, 5.1 ch, 48 kHz, 384 kbps | iTunes
Звук#2: английский, AC3, 5.1 ch, 48 kHz, 448 kbps | оригинал
Субтитры: русские (форс., полные (focs)), английские (SDH)

MI
Общее
Уникальный идентификатор : 212460545372191316459513528018545267751 (0x9FD669A2563F8AD6BD3D8C158465D427)
Полное имя : E:Torrent4DikayaRozaBDRip720p.mkv
Формат : Matroska
Версия формата : Version 4 / Version 2
Размер файла : 4,21 Гбайт
Продолжительность : 1 ч. 40 м.
Общий поток : 5975 Кбит/сек
Дата кодирования : UTC 2020-06-20 15:19:43
Программа кодирования : mkvmerge v9.5.0 ('Quiet Fire') 64bit
Библиотека кодирования : libebml v1.3.4 + libmatroska v1.4.5

Видео
Идентификатор : 1
Формат : AVC
Формат/Информация : Advanced Video Codec
Профиль формата : [email protected]
Настройки формата : CABAC / 12 Ref Frames
Параметр CABAC формата : Да
Параметр RefFrames формата : 12 кадров
Идентификатор кодека : V_MPEG4/ISO/AVC
Продолжительность : 1 ч. 40 м.
Битрейт : 5143 Кбит/сек
Ширина : 1280 пикселей
Высота : 536 пикселей
Соотношение сторон : 2,40:1
Режим частоты кадров : Постоянный
Частота кадров : 23,976 (23976/1000) кадра/сек
Цветовое пространство : YUV
Субдискретизация насыщенности : 4:2:0
Битовая глубина : 8 бит
Тип развёртки : Прогрессивная
Бит/(Пиксели*Кадры) : 0.313
Размер потока : 3,62 Гбайт (86%)
Заголовок : Sisendrovich(R)
Библиотека кодирования : x264 core 160 r3009 4c9b076
Настройки программы : cabac=1 / ref=12 / deblock=1:-1:-1 / analyse=0x3:0x133 / me=tesa / subme=11 / psy=1 / psy_rd=1.00:0.00 / mixed_ref=1 / me_range=32 / chroma_me=1 / trellis=2 / 8x8dct=1 / cqm=0 / deadzone=21,11 / fast_pskip=0 / chroma_qp_offset=-2 / threads=17 / lookahead_threads=4 / sliced_threads=0 / nr=0 / decimate=0 / interlaced=0 / bluray_compat=0 / constrained_intra=0 / bframes=12 / b_pyramid=2 / b_adapt=2 / b_bias=0 / direct=3 / weightb=1 / open_gop=0 / weightp=2 / keyint=240 / keyint_min=23 / scenecut=40 / intra_refresh=0 / rc_lookahead=60 / rc=2pass / mbtree=0 / bitrate=5143 / ratetol=1.0 / qcomp=0.70 / qpmin=0 / qpmax=69 / qpstep=4 / cplxblur=20.0 / qblur=0.5 / vbv_maxrate=50000 / vbv_bufsize=62500 / nal_hrd=none / filler=0 / ip_ratio=1.40 / pb_ratio=1.30 / aq=3:0.80
Язык : English
Default : Да
Forced : Нет

Аудио #1
Идентификатор : 2
Формат : AC-3
Формат/Информация : Audio Coding 3
Параметр Endianness формата : Big
Идентификатор кодека : A_AC3
Продолжительность : 1 ч. 40 м.
Вид битрейта : Постоянный
Битрейт : 384 Кбит/сек
Каналы : 6 каналов
Расположение каналов : Front: L C R, Side: L R, LFE
Частота : 48,0 КГц
Частота кадров : 31,250 кадров/сек (1536 SPF)
Битовая глубина : 16 бит
Метод сжатия : С потерями
Размер потока : 277 Мбайт (6%)
Заголовок : rus
Язык : Russian
Default : Да
Forced : Нет

Аудио #2
Идентификатор : 3
Формат : AC-3
Формат/Информация : Audio Coding 3
Параметр Endianness формата : Big
Идентификатор кодека : A_AC3
Продолжительность : 1 ч. 40 м.
Вид битрейта : Постоянный
Битрейт : 448 Кбит/сек
Каналы : 6 каналов
Расположение каналов : Front: L C R, Side: L R, LFE
Частота : 48,0 КГц
Частота кадров : 31,250 кадров/сек (1536 SPF)
Битовая глубина : 16 бит
Метод сжатия : С потерями
Размер потока : 323 Мбайт (7%)
Заголовок : eng
Язык : English
Default : Нет
Forced : Нет

Текст #1
Идентификатор : 4
Формат : UTF-8
Идентификатор кодека : S_TEXT/UTF8
Идентификатор кодека/Информация : UTF-8 Plain Text
Продолжительность : 1 ч. 32 м.
Битрейт : 11 бит/сек
ElementCount : 152
Размер потока : 7,91 Кбайт (0%)
Заголовок : rusForced
Язык : Russian
Default : Да
Forced : Нет

Текст #2
Идентификатор : 5
Формат : UTF-8
Идентификатор кодека : S_TEXT/UTF8
Идентификатор кодека/Информация : UTF-8 Plain Text
Продолжительность : 1 ч. 36 м.
Битрейт : 75 бит/сек
ElementCount : 970
Размер потока : 53,3 Кбайт (0%)
Заголовок : rusFull
Язык : Russian
Default : Нет
Forced : Нет

Текст #3
Идентификатор : 6
Формат : UTF-8
Идентификатор кодека : S_TEXT/UTF8
Идентификатор кодека/Информация : UTF-8 Plain Text
Продолжительность : 1 ч. 40 м.
Битрейт : 70 бит/сек
ElementCount : 1810
Размер потока : 51,6 Кбайт (0%)
Заголовок : engSDH
Язык : English
Default : Нет
Forced : Нет

Меню
00:00:00.000 : en:Chapter 1
00:09:12.385 : en:Chapter 2
00:16:32.283 : en:Chapter 3
00:25:29.403 : en:Chapter 4
00:32:25.026 : en:Chapter 5
00:43:13.591 : en:Chapter 6
00:50:55.386 : en:Chapter 7
00:59:57.761 : en:Chapter 8
01:08:24.892 : en:Chapter 9
01:15:52.006 : en:Chapter 10
01:25:15.569 : en:Chapter 11
01:31:41.663 : en:Chapter 12
Скриншоты

Рип и релиз от:
 

Вложения

  • 11,5 KB Просмотры: 0
    Личеров 0
    Сидеров 0
    Файлов 1
    Объем 4,2 GB

Привет!

Мы группа людей которые решили помочь другим в решении их проблем, а так же пользователям с поиском самых свежих и качественных инфопродуктов. За 4 с небольшим месяца мы создали этот форум на который заходят ежедневно тысячи человек и посещаемость постоянно растёт. Мы создали панель лицензирования для защиты PHP скриптов от воровства и SEO панель для мониторинга наших сайтов и выбора верной стратегии их развития. Мы надеемся что то что мы создали пригодится Вам и возможно Вы поможете нам развиваться и совершенствоваться вместе с Вами.

Статистика форума

Темы
406.656
Сообщения
465.107
Пользователи
84.677
Новый пользователь
maxim_nik33

Приложения форума для iOS и Android


У ркн там нет власти ;)
Приватные разговоры
Помощь Пользователи
    Вы не присоединились ни к одной комнате.