За последнюю неделю опубликовано 62 новых материалов.
Инструкция новичку Путеводитель по форуму Прокси для Telegram Показать подсказки , это бомба!

Скачать Дикая история / El bar (2017) BDRip-AVC | P | iTunes бесплатно через торрент

  • Поучаствуй (в качестве покупателя) в любых пяти совместных покупках (кроме завершённых и "Моментальных") и получи группу "Новичок" навсегда -> ссылка на раздел
  • Получай до 480 рублей за каждого приглашенного пользователя!
    представляем Вам очередное расширение партнерской программы, подробности описаны тут -> ссылка
  • 90% материалов доступно к скачиванию после простой регистрации!
    Если же ты хочешь скачивать материалы без требования оставлять отзывы то получи группу "Новичок", 10 способов повышения описаны тут -> ссылка
  • К сожалению количество битых ссылок растет и мы уже не можем их оперативно восстанавливать поэтому просим помощи у каждого нашего пользователя.
    С сегодняшнего дня, за каждую восстановленную ссылку мы заплатим Вам.
    Подробнее тут -> ссылка
  • Перенесем твои заслуги с другого ресурса!
    Мы понимаем как сложно прокачивать аккаунты на форумах, вроде раскачал аккаунт, а тут появляется ресурс в 100 раз круче но тоже с системой прокачки и снова качать аккаунт...
    Предлагаем вам перенести Ваши заслуги на другом подобном ресурсе к нам.
    Подробности описаны тут -> ссылка
  • Вы можете получать по 2.5% с каждой покупки и продажи на маркете! Подробности в теме Партнёрская программа
Если Вы не хотите скачивать, Вы всегда можетепосмотретьонлайн, просто нажмите кнопку ниже :

Открыть плеер

Torrent_Bot

Торрент-Бот
Бот форума
4 Окт 2016
92
160
20


Информация о фильме
Название: Дикая история
Оригинальное название: El bar
Год выхода: 2017
Жанр: Ужасы, триллер, комедия
Режиссер: Алекс де ла Иглесиа
В ролях: Бланка Суарес, Марио Касас, Кармен Мачи, Секун де ла Роса, Хайме Ордоньес, Тереле Павес, Хоакин Климент, Алехандро Авада, Хорди Агилар, Диего Брагуински

О фильме:
«Дикая история» разворачивается в грязноватом мадридском баре. Случайные посетители, типичные выходцы из разных слоев испанского общества, оказываются заперты в одном помещении – пространство у дверей простреливает снайпер, убивающий всех, кто пытается сбежать. Дело не ограничивается фантастической завязкой - начинает твориться какая-то чертовщина, пропадает мобильная связь, а телевизор изливает потоки бреда. Между заложниками вспыхивает конфликт. Тонкий налет цивилизованности мгновенно стирается, и основную опасность друг для друга начинают представлять сами жертвы. Черная комедия щедро разбавлена элементами социальной сатиры, триллера и вполне серьезной драмы.



Страна: Испания, Аргентина
Студия: Atresmedia Cine, El Bar Producciones, Nadie es Perfecto, Pampa Films, Pokeepsie Films
Продолжительность: 01:42:00
Перевод: Профессиональный (многоголосый, закадровый) - [iTunes]
Субтитры: Русские, английские

Файл
Качество: BDRip-AVC
Видео: x264, 1080x450 (2.40:1) 24,000 fps, ~2273 kbps, 0.195 bit/pixel
Аудио #1: Русский - AC3, 6 ch, 384 Кбит/с - MVO -[МОСФИЛЬМ-МАСТЕР]
Аудио #2: Испанский - AC3, 6 ch, 384 Кбит/с
Формат субтитров: softsub (SRT)

M/I
x264
x264 [info]: frame I:1852 Avg QP:17.62 size: 57675
x264 [info]: frame P:34346 Avg QP:18.77 size: 22623
x264 [info]: frame B:110691 Avg QP:21.36 size: 7726
x264 [info]: consecutive B-frames: 2.9% 2.6% 10.0% 31.0% 21.0% 26.3% 3.4% 0.9% 0.5% 0.3% 0.2% 0.1% 0.1% 0.2% 0.4%

General
Format : Matroska
Format version : Version 4
File size : 2.17 GiB
Duration : 1 h 42 min
Overall bit rate : 3 044 kb/s
Movie name : Дикая история / El bar (2017) :: AFM ::
Encoded date : UTC 2020-06-09 13:24:26
Writing application : mkvmerge v47.0.0 ('Black Flag') 64-bit
Writing library : libebml v1.3.10 + libmatroska v1.5.2
Cover : Yes
Attachments : cover.jpg / cover 2.jpg

Video
ID : 1
Format : AVC
Format/Info : Advanced Video Codec
Format profile : [email protected]
Format settings : CABAC / 11 Ref Frames
Format settings, CABAC : Yes
Format settings, Reference : 11 frames
Codec ID : V_MPEG4/ISO/AVC
Duration : 1 h 42 min
Bit rate : 2 273 kb/s
Width : 1 080 pixels
Height : 450 pixels
Display aspect ratio : 2.40:1
Frame rate mode : Constant
Frame rate : 24.000 FPS
Color space : YUV
Chroma subsampling : 4:2:0
Bit depth : 8 bits
Scan type : Progressive
Bits/(Pixel*Frame) : 0.195
Stream size : 1.62 GiB (75%)
Title : BDRip by AFM
Writing library : x264 core 152 r2851+45 9658d1a 7mod [[email protected] X86_64]
Encoding settings : cabac=1 / ref=11 / deblock=1:-3:-2 / analyse=0x3:0x133 / me=umh / subme=10 / psy=1 / fade_compensate=0.00 / psy_rd=1.00:0.00 / mixed_ref=1 / me_range=32 / chroma_me=0 / trellis=2 / 8x8dct=1 / cqm=0 / deadzone=21,11 / fast_pskip=0 / chroma_qp_offset=-2 / threads=6 / lookahead_threads=1 / sliced_threads=0 / nr=0 / decimate=1 / interlaced=0 / bluray_compat=0 / constrained_intra=0 / fgo=0 / bframes=14 / b_pyramid=2 / b_adapt=2 / b_bias=0 / direct=1 / weightb=1 / open_gop=0 / weightp=2 / keyint=240 / keyint_min=23 / scenecut=40 / intra_refresh=0 / rc_lookahead=90 / rc=crf / mbtree=0 / crf=18.2000 / qcomp=0.65 / qpmin=0:0:0 / qpmax=69:69:69 / qpstep=4 / vbv_maxrate=50000 / vbv_bufsize=62500 / crf_max=0.0 / nal_hrd=none / filler=0 / ip_ratio=1.35 / pb_ratio=1.25 / aq=3:0.80 / aq-sensitivity=10.00 / aq-factor=1.00:1.00:1.00 / aq2=0 / aq3=0 / zones=143940,146889,q=30
Language : Spanish
Default : Yes
Forced : No

Audio #1
ID : 2
Format : AC-3
Format/Info : Audio Coding 3
Commercial name : Dolby Digital
Codec ID : A_AC3
Duration : 1 h 42 min
Bit rate mode : Constant
Bit rate : 384 kb/s
Channel(s) : 6 channels
Channel layout : L R C LFE Ls Rs
Sampling rate : 48.0 kHz
Frame rate : 31.250 FPS (1536 SPF)
Compression mode : Lossy
Stream size : 280 MiB (13%)
Title : MVO_[iTunes]
Language : Russian
Service kind : Complete Main
Default : Yes
Forced : No

Audio #2
ID : 3
Format : AC-3
Format/Info : Audio Coding 3
Commercial name : Dolby Digital
Codec ID : A_AC3
Duration : 1 h 42 min
Bit rate mode : Constant
Bit rate : 384 kb/s
Channel(s) : 6 channels
Channel layout : L R C LFE Ls Rs
Sampling rate : 48.0 kHz
Frame rate : 31.250 FPS (1536 SPF)
Compression mode : Lossy
Stream size : 280 MiB (13%)
Title : Original
Language : Spanish
Service kind : Complete Main
Default : No
Forced : No

Text #1
ID : 4
Format : UTF-8
Codec ID : S_TEXT/UTF8
Codec ID/Info : UTF-8 Plain Text
Duration : 1 h 37 min
Bit rate : 105 b/s
Count of elements : 1412
Stream size : 75.0 KiB (0%)
Language : Russian
Default : No
Forced : No

Text #2
ID : 5
Format : UTF-8
Codec ID : S_TEXT/UTF8
Codec ID/Info : UTF-8 Plain Text
Duration : 1 h 37 min
Bit rate : 61 b/s
Count of elements : 1415
Stream size : 43.7 KiB (0%)
Language : English
Default : No
Forced : No

Menu
00:00:00.000 : en:Chapter 1
00:07:25.625 : en:Chapter 2
00:17:14.917 : en:Chapter 3
00:26:04.917 : en:Chapter 4
00:33:26.292 : en:Chapter 5
00:41:39.500 : en:Chapter 6
00:51:34.375 : en:Chapter 7
00:59:14.667 : en:Chapter 8
01:08:20.625 : en:Chapter 9
01:16:23.667 : en:Chapter 10
01:24:45.083 : en:Chapter 11
01:33:44.625 : en:Chapter 12
Скриншоты
 

Вложения

  • 87,8 KB Просмотры: 0
    Личеров 0
    Сидеров 0
    Файлов 1
    Объем 2,2 GB

Привет!

Мы группа людей которые решили помочь другим в решении их проблем, а так же пользователям с поиском самых свежих и качественных инфопродуктов. За 4 с небольшим месяца мы создали этот форум на который заходят ежедневно тысячи человек и посещаемость постоянно растёт. Мы создали панель лицензирования для защиты PHP скриптов от воровства и SEO панель для мониторинга наших сайтов и выбора верной стратегии их развития. Мы надеемся что то что мы создали пригодится Вам и возможно Вы поможете нам развиваться и совершенствоваться вместе с Вами.

Статистика форума

Темы
406.657
Сообщения
465.114
Пользователи
84.665
Новый пользователь
koleg

Приложения форума для iOS и Android


У ркн там нет власти ;)
Приватные разговоры
Помощь Пользователи
    Вы не присоединились ни к одной комнате.