За последнюю неделю опубликовано 91 новых материалов.
Инструкция новичку Путеводитель по форуму Прокси для Telegram Показать подсказки , это бомба!

Скачать Диета по-итальянски / Каким ты меня хочешь / Ci vuole un fisico (2018) WEB-DL 1080p | iTunes бесплатно через торрент

  • Поучаствуй (в качестве покупателя) в любых пяти совместных покупках (кроме завершённых и "Моментальных") и получи группу "Новичок" навсегда -> ссылка на раздел
  • Получай до 480 рублей за каждого приглашенного пользователя!
    представляем Вам очередное расширение партнерской программы, подробности описаны тут -> ссылка
  • 90% материалов доступно к скачиванию после простой регистрации!
    Если же ты хочешь скачивать материалы без требования оставлять отзывы то получи группу "Новичок", 10 способов повышения описаны тут -> ссылка
  • К сожалению количество битых ссылок растет и мы уже не можем их оперативно восстанавливать поэтому просим помощи у каждого нашего пользователя.
    С сегодняшнего дня, за каждую восстановленную ссылку мы заплатим Вам.
    Подробнее тут -> ссылка
  • Перенесем твои заслуги с другого ресурса!
    Мы понимаем как сложно прокачивать аккаунты на форумах, вроде раскачал аккаунт, а тут появляется ресурс в 100 раз круче но тоже с системой прокачки и снова качать аккаунт...
    Предлагаем вам перенести Ваши заслуги на другом подобном ресурсе к нам.
    Подробности описаны тут -> ссылка
  • Вы можете получать по 2.5% с каждой покупки и продажи на маркете! Подробности в теме Партнёрская программа
Если Вы не хотите скачивать, Вы всегда можетепосмотретьонлайн, просто нажмите кнопку ниже :

Открыть плеер

Torrent_Bot

Торрент-Бот
Бот форума
4 Окт 2016
102
152
20


Информация о фильме
Название: Диета по-итальянски
Альтернативное название: Каким ты меня хочешь
Оригинальное название: Ci vuole un fisico
Год выхода: 2018
Цифровой релиз (в России): 27 мая 2020
Жанр: комедия
Режиссер: Алессандро Тамбурини
В ролях: Клаудио Бигальи, Джампаоло Фабрицио, Анна Феррайоли Равель, Никколо Сенни, Алессандро Тамбурини, Франческа Вальторта

О фильме:
Встреча Алессандро и Анны — чистая случайность: их обоих прокатили с романтическими свиданиями. Это была судьба. Сначала Алессандро нашел Анну непривлекательной и навязчивой. Но за проведенную вместе долгую ночь со ссорами и безудержными танцами, ночным купанием и другими приключениями герой узнал девушку лучше. Да и вполне возможно, что он лучше узнал себя самого. Эти двое следуют своим путем до рассвета, когда наконец-то должны справиться с прошлым. Алессандро и Анна становятся более зрелыми и, вероятно, влюбляются.


Страна: Италия
Продолжительность: 01:17:07
Перевод: Профессиональный (многоголосый, закадровый) | iTunes

Файл
Формат: MKV
Кодек: MPEG-4 AVC
Качество: WEB-DL 1080p
Видео: 1920x804, ~ 4 591 kb/s, 8 bits, 25.000 FPS
Аудио #1 (русский): AAC-LC, 126 kb/s, 2 ch (L, R), 48.0 kHz
Субтитры: отсутствуют
Навигация по главам: есть

Скриншоты


MediaInfo
General
Unique ID : 109006338436195098379805342941520841506 (0x5201DB6D0486819E3DCDA4ECBD03CB22)
Complete name : [KORSARS]_Ci.vuole.un.fisico.WEB-DL.1080p.iTunes.mkv
Format : Matroska
Format version : Version 4
File size : 2.54 GiB
Duration : 1 h 17 min
Overall bit rate : 4 720 kb/s
Movie name : [KORSARS]_Ci.vuole.un.fisico.WEB-DL.1080p.iTunes
Encoded date : UTC 2020-05-27 11:13:12
Writing application : mkvmerge v45.0.0 ('Heaven in Pennies') 64-bit
Writing library : libebml v1.3.10 + libmatroska v1.5.2

Video
ID : 1
Format : AVC
Format/Info : Advanced Video Codec
Format profile : High@L4
Format settings : CABAC / 5 Ref Frames
Format settings, CABAC : Yes
Format settings, Reference : 5 frames
Codec ID : V_MPEG4/ISO/AVC
Duration : 1 h 17 min
Bit rate : 4 591 kb/s
Width : 1 920 pixels
Height : 804 pixels
Display aspect ratio : 2.40:1
Frame rate mode : Constant
Frame rate : 25.000 FPS
Color space : YUV
Chroma subsampling : 4:2:0
Bit depth : 8 bits
Scan type : Progressive
Bits/(Pixel*Frame) : 0.119
Stream size : 2.47 GiB (97%)
Language : Russian
Default : Yes
Forced : No
Color range : Limited
Color primaries : BT.709
Transfer characteristics : BT.709
Matrix coefficients : BT.709

Audio
ID : 2
Format : AAC LC
Format/Info : Advanced Audio Codec Low Complexity
Codec ID : A_AAC-2
Duration : 1 h 17 min
Bit rate : 126 kb/s
Channel(s) : 2 channels
Channel layout : L R
Sampling rate : 48.0 kHz
Frame rate : 46.875 FPS (1024 SPF)
Compression mode : Lossy
Delay relative to video : -40 ms
Stream size : 69.5 MiB (3%)
Language : Russian
Default : Yes
Forced : No

Menu
00:00:00.000 : ru:Глава 1
00:08:23.120 : ru:Глава 2
00:16:47.680 : ru:Глава 3
00:25:38.559 : ru:Глава 4
00:33:37.358 : ru:Глава 5
00:41:30.398 : ru:Глава 6
00:49:56.437 : ru:Глава 7
00:58:16.036 : ru:Глава 8
01:06:21.195 : ru:Глава 9


 

Вложения

  • 13,7 KB Просмотры: 0
    Личеров 0
    Сидеров 0
    Файлов 1
    Объем 2,5 GB

Привет!

Мы группа людей которые решили помочь другим в решении их проблем, а так же пользователям с поиском самых свежих и качественных инфопродуктов. За 4 с небольшим месяца мы создали этот форум на который заходят ежедневно тысячи человек и посещаемость постоянно растёт. Мы создали панель лицензирования для защиты PHP скриптов от воровства и SEO панель для мониторинга наших сайтов и выбора верной стратегии их развития. Мы надеемся что то что мы создали пригодится Вам и возможно Вы поможете нам развиваться и совершенствоваться вместе с Вами.

Статистика форума

Темы
404.586
Сообщения
461.463
Пользователи
80.281
Новый пользователь
MrProUk

Приложения форума для iOS и Android


У ркн там нет власти ;)
Приватные разговоры
Помощь Пользователи
    Вы не присоединились ни к одной комнате.