За последнюю неделю опубликовано 60 новых материалов.
Инструкция новичку Путеводитель по форуму Прокси для Telegram Показать подсказки , это бомба!

Скачать Дежа Вю (1989) HDTVRip 1080p бесплатно через торрент

  • Поучаствуй (в качестве покупателя) в любых пяти совместных покупках (кроме завершённых и "Моментальных") и получи группу "Новичок" навсегда -> ссылка на раздел
  • Получай до 480 рублей за каждого приглашенного пользователя!
    представляем Вам очередное расширение партнерской программы, подробности описаны тут -> ссылка
  • 90% материалов доступно к скачиванию после простой регистрации!
    Если же ты хочешь скачивать материалы без требования оставлять отзывы то получи группу "Новичок", 10 способов повышения описаны тут -> ссылка
  • К сожалению количество битых ссылок растет и мы уже не можем их оперативно восстанавливать поэтому просим помощи у каждого нашего пользователя.
    С сегодняшнего дня, за каждую восстановленную ссылку мы заплатим Вам.
    Подробнее тут -> ссылка
  • Перенесем твои заслуги с другого ресурса!
    Мы понимаем как сложно прокачивать аккаунты на форумах, вроде раскачал аккаунт, а тут появляется ресурс в 100 раз круче но тоже с системой прокачки и снова качать аккаунт...
    Предлагаем вам перенести Ваши заслуги на другом подобном ресурсе к нам.
    Подробности описаны тут -> ссылка
  • Вы можете получать по 2.5% с каждой покупки и продажи на маркете! Подробности в теме Партнёрская программа
Если Вы не хотите скачивать, Вы всегда можетепосмотретьонлайн, просто нажмите кнопку ниже :

Открыть плеер

Torrent_Bot

Торрент-Бот
Бот форума
4 Окт 2016
92
163
20


Информация о фильме
Название: Дежа Вю
Оригинальное название: Deja Vu
Год выхода: 1989
Жанр: Комедия
Режиссер: Юлиуш Махульский / Juliusz Machulski
В ролях: Ежи Штур, Галина Петрова, Николай Караченцов, Владимир Головин, Елизавета Махульская, Виктор Степанов, Олег Шкловский, Василий Мищенко, Всеволод Сафонов, Виталий Шаповалов, Войцех Высоцкий, Ян Махульский, Войцех Малайкат, Здислав Кузняр, Ян Пьешко, Анатолий Котенёв, Валерий Барда-Скляренко, Никита Высоцкий

О фильме:
1925 год. В СССР - НЭП, в США - «сухой закон». Мафия чикагских бутлегеров разыскивает некоего Мика Нича — Микиту Нечипорука, который оказался стукачом. Выясняется, что он сбежал в советскую Одессу, где открывает «великий самогонный путь» по доставке спиртных напитков по побережью Северного Ледовитого океана из России в Америку. Для ликвидации предателя нанимается знаменитый киллер — американский гангстер польского происхождения по фамилии Поллак. Под видом профессора-энтомолога, следующего на Суматру ловить бабочек, Поллак прибывает в Одессу, «чтобы навестить могилу отца».



Страна: СССР, Польша
Продолжительность: 01:44:46
Перевод: не требуется

Файл
Кодек: x264
Качество: HDTVRip 1080p
Видео: AVC/H.264, 1792x1080, ~4100 Кбит/с, 25 fps
Аудио #1: Русский; AC3, 192 Kbps, 48 kHz, 2 ch | VO на места с англоязычной речью
Аудио #2: английский; AC3, 192 Kbps, 48 kHz, 2 ch | Оригинал
Субтитры: Русские, русские (форс. на англ. речь), английские



Дополнительная информация:
Цифровая реставрация (реконструкция) видеоряда. В исходнике, русско-английская многоканальная аудиодорожка - "дутая" (звук только в двух фронтах), поэтому оригинальная аудиодорожка #2 получена Downmix-ом из 5.1 в стерео. Аудиодорожка #1 получена заменой фрагментов с английской речью из аудио #2 на соответствующие фрагменты с русским закадровым переводом с DVD (CP digital).
Mediainfo:
General
Unique ID : 227828367830021157915548039230693718023 (0xAB6625C7B3E167E99B7FC48FCC063807)
Complete name : D:КИНОДежа вю.(1989).HDTVRIP.1080p.[-=DoMiNo=-].mkv
Format : Matroska
Format version : Version 4 / Version 2
File size : 3.28 GiB
Duration : 1 h 44 min
Overall bit rate : 4 485 kb/s
Movie name : Дежа вю
Encoded date : UTC 2017-06-19 15:26:31
Writing application : mkvmerge v12.0.0 ('Trust / Lust') 64bit
Writing library : libebml v1.3.4 + libmatroska v1.4.5
Attachments : poster.jpg

Video
ID : 1
Format : AVC
Format/Info : Advanced Video Codec
Format profile : [email protected]
Format settings, CABAC : Yes
Format settings, ReFrames : 4 frames
Codec ID : V_MPEG4/ISO/AVC
Duration : 1 h 44 min
Bit rate : 4 100 kb/s
Width : 1 792 pixels
Height : 1 080 pixels
Display aspect ratio : 5:3
Frame rate mode : Constant
Frame rate : 25.000 FPS
Color space : YUV
Chroma subsampling : 4:2:0
Bit depth : 8 bits
Scan type : Progressive
Bits/(Pixel*Frame) : 0.085
Stream size : 3.00 GiB (91%)
Title : RIP_BY_-=DoMiNo=-
Writing library : x264 core 150 r2833M df79067
Encoding settings : cabac=1 / ref=4 / deblock=1:-3:-3 / analyse=0x3:0x113 / me=umh / subme=11 / psy=1 / psy_rd=1.00:0.10 / mixed_ref=1 / me_range=48 / chroma_me=1 / trellis=2 / 8x8dct=1 / cqm=0 / deadzone=21,11 / fast_pskip=0 / chroma_qp_offset=-3 / threads=6 / lookahead_threads=1 / sliced_threads=0 / nr=0 / decimate=1 / interlaced=0 / bluray_compat=0 / constrained_intra=0 / bframes=12 / b_pyramid=2 / b_adapt=2 / b_bias=0 / direct=3 / weightb=1 / open_gop=0 / weightp=2 / keyint=250 / keyint_min=25 / scenecut=40 / intra_refresh=0 / rc=2pass / mbtree=0 / bitrate=4100 / ratetol=1.0 / qcomp=0.60 / qpmin=0 / qpmax=69 / qpstep=4 / cplxblur=20.0 / qblur=0.5 / ip_ratio=1.40 / pb_ratio=1.30 / aq=1:1.00
Default : Yes
Forced : No
Color range : Limited
Color primaries : BT.709
Transfer characteristics : BT.709
Matrix coefficients : BT.709

Audio #1
ID : 2
Format : AC-3
Format/Info : Audio Coding 3
Format settings, Endianness : Big
Codec ID : A_AC3
Duration : 1 h 44 min
Bit rate mode : Constant
Bit rate : 192 kb/s
Channel(s) : 2 channels
Channel positions : Front: L R
Sampling rate : 48.0 kHz
Frame rate : 31.250 FPS (1536 spf)
Bit depth : 16 bits
Compression mode : Lossy
Stream size : 144 MiB (4%)
Title : RUS+AVO
Language : Russian
Service kind : Complete Main
Default : Yes
Forced : No

Audio #2
ID : 3
Format : AC-3
Format/Info : Audio Coding 3
Format settings, Endianness : Big
Codec ID : A_AC3
Duration : 1 h 44 min
Bit rate mode : Constant
Bit rate : 192 kb/s
Channel(s) : 2 channels
Channel positions : Front: L R
Sampling rate : 48.0 kHz
Frame rate : 31.250 FPS (1536 spf)
Bit depth : 16 bits
Compression mode : Lossy
Stream size : 144 MiB (4%)
Title : ENG
Language : English
Service kind : Complete Main
Default : No
Forced : No

Text #1
ID : 4
Format : UTF-8
Codec ID : S_TEXT/UTF8
Codec ID/Info : UTF-8 Plain Text
Duration : 1 h 39 min
Bit rate : 14 b/s
Count of elements : 217
Stream size : 10.6 KiB (0%)
Title : Forse
Language : Russian
Default : Yes
Forced : No

Text #2
ID : 5
Format : UTF-8
Codec ID : S_TEXT/UTF8
Codec ID/Info : UTF-8 Plain Text
Duration : 1 h 40 min
Bit rate : 90 b/s
Count of elements : 965
Stream size : 66.1 KiB (0%)
Title : Full
Language : Russian
Default : No
Forced : No

Text #3
ID : 6
Format : UTF-8
Codec ID : S_TEXT/UTF8
Codec ID/Info : UTF-8 Plain Text
Duration : 1 h 39 min
Bit rate : 45 b/s
Count of elements : 764
Stream size : 33.3 KiB (0%)
Language : English
Default : No
Forced : No
Скриншоты
 

Вложения

  • 17,3 KB Просмотры: 1
    Личеров 0
    Сидеров 0
    Файлов 1
    Объем 3,3 GB

Привет!

Мы группа людей которые решили помочь другим в решении их проблем, а так же пользователям с поиском самых свежих и качественных инфопродуктов. За 4 с небольшим месяца мы создали этот форум на который заходят ежедневно тысячи человек и посещаемость постоянно растёт. Мы создали панель лицензирования для защиты PHP скриптов от воровства и SEO панель для мониторинга наших сайтов и выбора верной стратегии их развития. Мы надеемся что то что мы создали пригодится Вам и возможно Вы поможете нам развиваться и совершенствоваться вместе с Вами.

Статистика форума

Темы
406.702
Сообщения
465.168
Пользователи
84.842
Новый пользователь
fantazy77

Приложения форума для iOS и Android


У ркн там нет власти ;)
Приватные разговоры
Помощь Пользователи
    Вы не присоединились ни к одной комнате.