За последнюю неделю опубликовано 57 новых материалов.
Инструкция новичку Путеводитель по форуму Прокси для Telegram Показать подсказки , это бомба!

Скачать Дежа Вю (1989) BDRip 1080p бесплатно через торрент

  • Поучаствуй (в качестве покупателя) в любых пяти совместных покупках (кроме завершённых и "Моментальных") и получи группу "Новичок" навсегда -> ссылка на раздел
  • Получай до 480 рублей за каждого приглашенного пользователя!
    представляем Вам очередное расширение партнерской программы, подробности описаны тут -> ссылка
  • 90% материалов доступно к скачиванию после простой регистрации!
    Если же ты хочешь скачивать материалы без требования оставлять отзывы то получи группу "Новичок", 10 способов повышения описаны тут -> ссылка
  • К сожалению количество битых ссылок растет и мы уже не можем их оперативно восстанавливать поэтому просим помощи у каждого нашего пользователя.
    С сегодняшнего дня, за каждую восстановленную ссылку мы заплатим Вам.
    Подробнее тут -> ссылка
  • Перенесем твои заслуги с другого ресурса!
    Мы понимаем как сложно прокачивать аккаунты на форумах, вроде раскачал аккаунт, а тут появляется ресурс в 100 раз круче но тоже с системой прокачки и снова качать аккаунт...
    Предлагаем вам перенести Ваши заслуги на другом подобном ресурсе к нам.
    Подробности описаны тут -> ссылка
  • Вы можете получать по 2.5% с каждой покупки и продажи на маркете! Подробности в теме Партнёрская программа
Если Вы не хотите скачивать, Вы всегда можетепосмотретьонлайн, просто нажмите кнопку ниже :

Открыть плеер

Torrent_Bot

Торрент-Бот
Бот форума
4 Окт 2016
92
163
20




Информация о фильме
Название: Дежа Вю
Оригинальное название: Deja Vu
Год выхода: 1989
Жанр: Комедия
Режиссер: Юлиуш Махульский / Juliusz Machulski
В ролях: Ежи Штур, Галина Петрова, Николай Караченцов, Владимир Головин, Елизавета Махульская, Виктор Степанов, Олег Шкловский, Василий Мищенко, Всеволод Сафонов, Виталий Шаповалов, Войцех Высоцкий, Ян Махульский, Войцех Малайкат, Здислав Кузняр, Ян Пьешко, Анатолий Котенёв, Валерий Барда-Скляренко, Никита Высоцкий

О фильме:
1925 год. В СССР - НЭП, в США - «сухой закон». Мафия чикагских бутлегеров разыскивает некоего Мика Нича — Микиту Нечипорука, который оказался стукачом. Выясняется, что он сбежал в советскую Одессу, где открывает «великий самогонный путь» по доставке спиртных напитков по побережью Северного Ледовитого океана из России в Америку. Для ликвидации предателя нанимается знаменитый киллер — американский гангстер польского происхождения по фамилии Поллак. Под видом профессора-энтомолога, следующего на Суматру ловить бабочек, Поллак прибывает в Одессу, «чтобы навестить могилу отца».



Страна: СССР, Польша
Продолжительность: 01:44:35
Перевод: не требуется
Субтитры: Русские (форсированные, на иностранную речь), русские (полные), английские, польские

Файл
Качество: BDRip 1080p
Видео: AVC/H.264, 1792х1080, ~11.8 Mbps
Аудио 1: AC3, 2 ch, 192 Kbps - Русский (+VO на иностранную речь)
Аудио 2: AC3, 2 ch, 224 Kbps - Русский (Blu-ray)
Релиз от: karfagen1975



Дополнительная информация:
Знаете ли вы, что…
Польскому актеру Ежи Штуру очень не нравилась эта работа на советской киностудии, вдобавок, именно тогда у него начались проблемы со здоровьем (по возвращению в Польшу у него случился сердечный приступ). Так что выражение омерзения, которое написано на лице американского его героя, обязано своим возникновением не только актёрскому мастерству Штура.

Мафиози, появляющиеся в сценах в Чикаго, носят фамилии видных деятелей Голливуда итальянского происхождения — де Ниро, Чимино, Скорсезе, Пачино, Коппола, де Пальма, Сталлоне.

В качестве «Булочной Ничипорука» снималось здание детской библиотеки г. Одесса.

Ошибки в фильме
Маршрут велогонки на тандемах проходит весьма замысловато — герой Штура накручивает круг за кругом, появляясь в разных частях города.
Mediainfo:
x264 [info]: frame I:1104 Avg QP:15.51 size:192076
x264 [info]: frame P:34426 Avg QP:18.15 size:108991
x264 [info]: frame B:121355 Avg QP:19.86 size: 43247
x264 [info]: consecutive B-frames: 2.0% 2.8% 12.1% 13.6% 7.0% 61.8% 0.5% 0.0% 0.0% 0.0% 0.1%
-------------------------------------------------------------------------------------------------------------------------------
General
Format : Matroska
Format version : Version 4
File size : 8.89 GiB
Duration : 1 h 44 min
Overall bit rate : 12.2 Mb/s
Movie name : Dezha.vyu.1989.BDRip.1080p.NNMClub
Encoded date : UTC 2020-07-03 15:45:53
Writing application : mkvmerge v48.0.0 ('Fortress Around Your Heart') 64-bit
Writing library : libebml v1.4.0 + libmatroska v1.6.0

Video
ID : 1
Format : AVC
Format/Info : Advanced Video Codec
Format profile : [email protected]
Format settings : CABAC / 4 Ref Frames
Format settings, CABAC : Yes
Format settings, Reference : 4 frames
Codec ID : V_MPEG4/ISO/AVC
Duration : 1 h 44 min
Bit rate : 11.8 Mb/s
Width : 1 792 pixels
Height : 1 080 pixels
Display aspect ratio : 5:3
Frame rate mode : Constant
Frame rate : 25.000 FPS
Color space : YUV
Chroma subsampling : 4:2:0
Bit depth : 8 bits
Scan type : Progressive
Bits/(Pixel*Frame) : 0.243
Stream size : 8.58 GiB (97%)
Title : Dezha.vyu.1989.BDRip.1080p.NNMClub
Writing library : x264 core 160 r3009 4c9b076
Encoding settings : cabac=1 / ref=4 / deblock=1:-1:-1 / analyse=0x3:0x133 / me=umh / subme=10 / psy=1 / psy_rd=1.05:0.00 / mixed_ref=1 / me_range=64 / chroma_me=1 / trellis=2 / 8x8dct=1 / cqm=0 / deadzone=21,11 / fast_pskip=0 / chroma_qp_offset=-2 / threads=4 / lookahead_threads=1 / sliced_threads=0 / nr=0 / decimate=0 / interlaced=0 / bluray_compat=0 / constrained_intra=0 / bframes=10 / b_pyramid=2 / b_adapt=2 / b_bias=0 / direct=3 / weightb=1 / open_gop=0 / weightp=2 / keyint=250 / keyint_min=25 / scenecut=40 / intra_refresh=0 / rc_lookahead=60 / rc=2pass / mbtree=0 / bitrate=11750 / ratetol=1.0 / qcomp=0.60 / qpmin=0 / qpmax=69 / qpstep=4 / cplxblur=20.0 / qblur=0.5 / vbv_maxrate=50000 / vbv_bufsize=62500 / nal_hrd=none / filler=0 / ip_ratio=1.40 / pb_ratio=1.30 / aq=1:1.00
Language : Russian
Default : Yes
Forced : No

Audio #1
ID : 2
Format : AC-3
Format/Info : Audio Coding 3
Commercial name : Dolby Digital
Codec ID : A_AC3
Duration : 1 h 44 min
Bit rate mode : Constant
Bit rate : 192 kb/s
Channel(s) : 2 channels
Channel layout : L R
Sampling rate : 48.0 kHz
Frame rate : 31.250 FPS (1536 SPF)
Compression mode : Lossy
Stream size : 144 MiB (2%)
Title : +VO (for English)
Language : Russian
Service kind : Complete Main
Default : No
Forced : No

Audio #2
ID : 3
Format : AC-3
Format/Info : Audio Coding 3
Commercial name : Dolby Digital
Codec ID : A_AC3
Duration : 1 h 44 min
Bit rate mode : Constant
Bit rate : 224 kb/s
Channel(s) : 2 channels
Channel layout : L R
Sampling rate : 48.0 kHz
Frame rate : 31.250 FPS (1536 SPF)
Compression mode : Lossy
Stream size : 168 MiB (2%)
Title : Blu-ray
Language : Russian
Service kind : Complete Main
Default : No
Forced : No

Text #1
ID : 4
Format : UTF-8
Codec ID : S_TEXT/UTF8
Codec ID/Info : UTF-8 Plain Text
Duration : 1 h 39 min
Bit rate : 14 b/s
Count of elements : 217
Stream size : 10.6 KiB (0%)
Title : Forced (for Blu-ray)
Language : Russian
Default : No
Forced : No

Text #2
ID : 5
Format : UTF-8
Codec ID : S_TEXT/UTF8
Codec ID/Info : UTF-8 Plain Text
Duration : 1 h 40 min
Bit rate : 90 b/s
Count of elements : 965
Stream size : 66.1 KiB (0%)
Title : Full
Language : Russian
Default : No
Forced : No

Text #3
ID : 6
Format : UTF-8
Codec ID : S_TEXT/UTF8
Codec ID/Info : UTF-8 Plain Text
Duration : 1 h 39 min
Bit rate : 45 b/s
Count of elements : 764
Stream size : 33.3 KiB (0%)
Title : Full
Language : English
Default : No
Forced : No

Text #4
ID : 7
Format : UTF-8
Codec ID : S_TEXT/UTF8
Codec ID/Info : UTF-8 Plain Text
Duration : 1 h 40 min
Bit rate : 49 b/s
Count of elements : 856
Stream size : 36.3 KiB (0%)
Title : Full
Language : Polish
Default : No
Forced : No

Menu
00:00:00.000 : ru:01
00:12:23.840 : ru:02
00:19:35.920 : ru:03
00:30:36.160 : ru:04
00:41:07.840 : ru:05
00:53:19.760 : ru:06
01:04:25.560 : ru:07
01:14:45.600 : ru:08
01:24:44.800 : ru:09
01:35:03.640 : ru:10
01:39:17.560 : ru:11
01:43:32.960 : ru:12
Скриншоты

 

Вложения

  • 45,3 KB Просмотры: 0
    Личеров 0
    Сидеров 0
    Файлов 1
    Объем 8,9 GB

Привет!

Мы группа людей которые решили помочь другим в решении их проблем, а так же пользователям с поиском самых свежих и качественных инфопродуктов. За 4 с небольшим месяца мы создали этот форум на который заходят ежедневно тысячи человек и посещаемость постоянно растёт. Мы создали панель лицензирования для защиты PHP скриптов от воровства и SEO панель для мониторинга наших сайтов и выбора верной стратегии их развития. Мы надеемся что то что мы создали пригодится Вам и возможно Вы поможете нам развиваться и совершенствоваться вместе с Вами.

Статистика форума

Темы
406.698
Сообщения
465.162
Пользователи
84.787
Новый пользователь
Freckle

Приложения форума для iOS и Android


У ркн там нет власти ;)
Приватные разговоры
Помощь Пользователи
    Вы не присоединились ни к одной комнате.