За последнюю неделю опубликовано 59 новых материалов.
Инструкция новичку Путеводитель по форуму Прокси для Telegram Показать подсказки , это бомба!

Скачать Девушки-рабыни из бесконечности / Slave Girls from Beyond Infinity (1987) WEB-DL 1080p | P2, A бесплатно через торрент

  • Поучаствуй (в качестве покупателя) в любых пяти совместных покупках (кроме завершённых и "Моментальных") и получи группу "Новичок" навсегда -> ссылка на раздел
  • Получай до 480 рублей за каждого приглашенного пользователя!
    представляем Вам очередное расширение партнерской программы, подробности описаны тут -> ссылка
  • 90% материалов доступно к скачиванию после простой регистрации!
    Если же ты хочешь скачивать материалы без требования оставлять отзывы то получи группу "Новичок", 10 способов повышения описаны тут -> ссылка
  • К сожалению количество битых ссылок растет и мы уже не можем их оперативно восстанавливать поэтому просим помощи у каждого нашего пользователя.
    С сегодняшнего дня, за каждую восстановленную ссылку мы заплатим Вам.
    Подробнее тут -> ссылка
  • Перенесем твои заслуги с другого ресурса!
    Мы понимаем как сложно прокачивать аккаунты на форумах, вроде раскачал аккаунт, а тут появляется ресурс в 100 раз круче но тоже с системой прокачки и снова качать аккаунт...
    Предлагаем вам перенести Ваши заслуги на другом подобном ресурсе к нам.
    Подробности описаны тут -> ссылка
  • Вы можете получать по 2.5% с каждой покупки и продажи на маркете! Подробности в теме Партнёрская программа
Если Вы не хотите скачивать, Вы всегда можетепосмотретьонлайн, просто нажмите кнопку ниже :

Открыть плеер

Torrent_Bot

Торрент-Бот
Бот форума
4 Окт 2016
92
163
20



Информация о фильме
Название: Девушки-рабыни из бесконечности
Оригинальное название: Slave Girls from Beyond Infinity
Год выхода: 1987
Жанр: фантастика, боевик, комедия, приключения
Режиссер: Кен Диксон
В ролях: Элизабет Кайтан, Синди Бил, Дон Скрибнер, Бринк Стивенс, Карл Хорнер, Кирк Грейвз, Бад Грейвз, Джеффри Бланчард, Майк Купер

О фильме:
Две сестры Дария и Тиса на спасательном шаттле, сбегают с межгалактического рабовладельческого корабля. На радаре они обнаружили незнакомую планету, однако приземление прошло не совсем гладко, их корабль упал в море. После крушения девушки попадают в странный замок находящийся в самом сердце джунглях, где их радушно встречает отшельник по имени Зед и его два верных робота. Но на этом приключения девушек не заканчиваются, так как приветливый незнакомец на самом деле безумный убийца, который любит устраивать на своих гостей настоящую охоту. Особей мужского пола он убивает, а их головы вешает на стены замка, как часть декора, но особенно Зед любит охотиться на девушек, которых ожидает ещё худшая участь…



Страна: США
Студия: Beyond Infinity, Titan Productions
Продолжительность: 01:14:21
Перевод: Профессиональный двухголосый, закадровый; Авторский [Михаил Заугаров]

Файл
Кодек: H.264
Качество: WEB-DL 1080p
Видео: AVC, 1920x1080 (16:9), 23.976 fps ~ 13 Mbps
Звук:
AC3, 48 KHz, 2 ch ~ 192 Kb/s (Профессиональный)
AC3, 48 KHz, 2 ch ~ 192 Kb/s (Авторский)
E-AC3, 48 KHz, 2 ch ~ 224 Kb/s (английский)
Субтитры: отсутствуют

MI:
General
Unique ID : 250620394986075166040173202471781539742 (0xBC8BBB7A7D2F66D1B90681ADBB221F9E)
Complete name : J:wotSlave.Girls.From.Beyond.Infinity.1987.1080p.AMZN.mkv
Format : Matroska
Format version : Version 4 / Version 2
File size : 7.19 GiB
Duration : 1h 14mn
Overall bit rate mode : Variable
Overall bit rate : 13.8 Mbps
Encoded date : UTC 2020-05-12 17:45:22
Writing application : mkvmerge v7.7.0 ('Six Voices') 32bit built on Feb 28 2015 23:23:00
Writing library : libebml v1.3.1 + libmatroska v1.4.2
_STATISTICS_WRITING_APP : mkvmerge v7.7.0 ('Six Voices') 32bit built on Feb 28 2015 23:23:00
_STATISTICS_WRITING_DATE_UTC : 2020-05-12 17:45:22
_STATISTICS_TAGS : BPS DURATION NUMBER_OF_FRAMES NUMBER_OF_BYTES
DURATION : 01:14:21.376000000
NUMBER_OF_FRAMES : 139418
NUMBER_OF_BYTES : 107073024

Video
ID : 1
Format : AVC
Format/Info : Advanced Video Codec
Format profile : [email protected]
Format settings, CABAC : Yes
Format settings, ReFrames : 4 frames
Codec ID : V_MPEG4/ISO/AVC
Duration : 1h 14mn
Bit rate mode : Variable
Bit rate : 13.0 Mbps
Maximum bit rate : 15.0 Mbps
Width : 1 920 pixels
Height : 1 080 pixels
Display aspect ratio : 16:9
Frame rate mode : Constant
Frame rate : 23.976 fps
Color space : YUV
Chroma subsampling : 4:2:0
Bit depth : 8 bits
Scan type : Progressive
Bits/(Pixel*Frame) : 0.261
Stream size : 6.73 GiB (94%)
Language : English
Default : Yes
Forced : No
Color range : Limited
Color primaries : BT.709
Transfer characteristics : BT.709
Matrix coefficients : BT.709

Audio #1
ID : 2
Format : AC-3
Format/Info : Audio Coding 3
Mode extension : CM (complete main)
Format settings, Endianness : Big
Codec ID : A_AC3
Duration : 1h 14mn
Bit rate mode : Constant
Bit rate : 192 Kbps
Channel(s) : 2 channels
Channel positions : Front: L R
Sampling rate : 48.0 KHz
Compression mode : Lossy
Stream size : 102 MiB (1%)
Title : P2
Language : Russian
Default : Yes
Forced : No

Audio #2
ID : 3
Format : AC-3
Format/Info : Audio Coding 3
Mode extension : CM (complete main)
Format settings, Endianness : Big
Codec ID : A_AC3
Duration : 1h 14mn
Bit rate mode : Constant
Bit rate : 192 Kbps
Channel(s) : 2 channels
Channel positions : Front: L R
Sampling rate : 48.0 KHz
Compression mode : Lossy
Stream size : 102 MiB (1%)
Title : A
Language : Russian
Default : No
Forced : No

Audio #3
ID : 4
Format : E-AC-3
Format/Info : Audio Coding 3
Format settings, Endianness : Big
Codec ID : A_EAC3
Duration : 1h 14mn
Bit rate mode : Constant
Bit rate : 224 Kbps
Channel(s) : 2 channels
Channel positions : Front: L R
Sampling rate : 48.0 KHz
Compression mode : Lossy
Stream size : 119 MiB (2%)
Language : English
Default : No
Forced : No

Скриншоты
 

Вложения

  • 36,9 KB Просмотры: 0
    Личеров 0
    Сидеров 0
    Файлов 1
    Объем 7,2 GB

Привет!

Мы группа людей которые решили помочь другим в решении их проблем, а так же пользователям с поиском самых свежих и качественных инфопродуктов. За 4 с небольшим месяца мы создали этот форум на который заходят ежедневно тысячи человек и посещаемость постоянно растёт. Мы создали панель лицензирования для защиты PHP скриптов от воровства и SEO панель для мониторинга наших сайтов и выбора верной стратегии их развития. Мы надеемся что то что мы создали пригодится Вам и возможно Вы поможете нам развиваться и совершенствоваться вместе с Вами.

Статистика форума

Темы
406.678
Сообщения
465.125
Пользователи
84.737
Новый пользователь
Mo0dak

Приложения форума для iOS и Android


У ркн там нет власти ;)
Приватные разговоры
Помощь Пользователи
    Вы не присоединились ни к одной комнате.