За последнюю неделю опубликовано 34 новых материалов.
Инструкция новичку Путеводитель по форуму Прокси для Telegram Показать подсказки , это бомба!

Скачать Девушка из первой квартиры / 1BR (2019) BDRip 1080p | L2 бесплатно через торрент

  • Поучаствуй (в качестве покупателя) в любых пяти совместных покупках (кроме завершённых и "Моментальных") и получи группу "Новичок" навсегда -> ссылка на раздел
  • Получай до 480 рублей за каждого приглашенного пользователя!
    представляем Вам очередное расширение партнерской программы, подробности описаны тут -> ссылка
  • 90% материалов доступно к скачиванию после простой регистрации!
    Если же ты хочешь скачивать материалы без требования оставлять отзывы то получи группу "Новичок", 10 способов повышения описаны тут -> ссылка
  • К сожалению количество битых ссылок растет и мы уже не можем их оперативно восстанавливать поэтому просим помощи у каждого нашего пользователя.
    С сегодняшнего дня, за каждую восстановленную ссылку мы заплатим Вам.
    Подробнее тут -> ссылка
  • Перенесем твои заслуги с другого ресурса!
    Мы понимаем как сложно прокачивать аккаунты на форумах, вроде раскачал аккаунт, а тут появляется ресурс в 100 раз круче но тоже с системой прокачки и снова качать аккаунт...
    Предлагаем вам перенести Ваши заслуги на другом подобном ресурсе к нам.
    Подробности описаны тут -> ссылка
  • Вы можете получать по 2.5% с каждой покупки и продажи на маркете! Подробности в теме Партнёрская программа
Если Вы не хотите скачивать, Вы всегда можетепосмотретьонлайн, просто нажмите кнопку ниже :

Открыть плеер

Torrent_Bot

Торрент-Бот
Бот форума
4 Окт 2016
93
160
20



Информация о фильме
Название: Девушка из первой квартиры
Оригинальное название: 1BR
Год выхода: 2019
Жанр: Ужасы, триллер, драма
Режиссер: Дэвид Мэрмор
В ролях: Алан Блюменфилд, Андреа Гэбриел, Джиллз Мэттхи, Марк Креник, Наоми Гроссман, Николь Брайдон Блум, Сьюзэн Дэвис, Тейлор Николс, Селеста А. Салливан, Хейли Джиллз

О фильме:
Рассорившись с отцом после смерти матери, Сара пытается начать самостоятельную жизнь и находит идеальную, как ей кажется, квартирку в одном из небольших жилых комплексов Лос-Анджелеса. Её новые соседи — всё сплошь доброжелательные милые люди, которые устраивают совместные вечеринки и заботятся друг о друге. Но по ночам Сара не может нормально спать из-за странных звуков, и вскоре она узнает о своих соседях нечто очень неприятное.



Страна: США
Студия: 1BR Movie, Epicenter, Malevolent FIlms
Продолжительность: 01:30:12
Перевод: Любительский двухголосый | LakeFilms

Файл
Кодек: x.264
Качество: BDRip 1080p
Видео: MPEG-4 AVC, 10.3 Mбит/с, 1920x804, 23.976 кадр/с
Аудио #1: Русский (АС3, 6 ch, 448 Кбит/с, 48.0 KHz) Любительский (двухголосый, закадровый) LakeFilms
Аудио #2: Английский (АС3, 6 ch, 640 Кбит/с, 48.0 KHz)
Субтитры: Русские (Forced), английские
► Без Рекламы!
Трейлер
MediaInfo
Источник: 1BR.2019.COMPLETE.BLURAY-RELiGiOUS
General
Unique ID : 231124273436872715148736514016126949001 (0xADE0EA78FDC9D5DE9B855F57C607D689)
Complete name : 1BR.2019.BDRip,1080p.mkv
Format : Matroska
Format version : Version 4
File size : 7.18 GiB
Duration : 1 h 30 min
Overall bit rate : 11.4 Mb/s
Encoded date : UTC 2020-05-29 23:23:12
Writing application : mkvmerge v7.1.0 ('Good Love') 64bit built on Jul 27 2014 13:06:55
Writing library : libebml v1.3.0 + libmatroska v1.4.1

Video
ID : 1
Format : AVC
Format/Info : Advanced Video Codec
Format profile : [email protected]
Format settings : CABAC / 5 Ref Frames
Format settings, CABAC : Yes
Format settings, Reference fra : 5 frames
Codec ID : V_MPEG4/ISO/AVC
Duration : 1 h 30 min
Bit rate : 10.3 Mb/s
Width : 1 920 pixels
Height : 804 pixels
Display aspect ratio : 2.40:1
Frame rate mode : Constant
Frame rate : 23.976 (24000/1001) FPS
Color space : YUV
Chroma subsampling : 4:2:0
Bit depth : 8 bits
Scan type : Progressive
Bits/(Pixel*Frame) : 0.278
Stream size : 6.49 GiB (90%)
Writing library : x264 core 157 r2958 57baac4
Encoding settings : cabac=1 / ref=5 / deblock=1:-3:-3 / analyse=0x3:0x113 / me=umh / subme=11 / psy=1 / psy_rd=1.00:0.00 / mixed_ref=1 / me_range=48 / chroma_me=1 / trellis=2 / 8x8dct=1 / cqm=0 / deadzone=21,11 / fast_pskip=1 / chroma_qp_offset=-2 / threads=18 / lookahead_threads=4 / sliced_threads=0 / nr=0 / decimate=1 / interlaced=0 / bluray_compat=0 / constrained_intra=0 / bframes=10 / b_pyramid=2 / b_adapt=2 / b_bias=0 / direct=3 / weightb=1 / open_gop=0 / weightp=2 / keyint=240 / keyint_min=24 / scenecut=40 / intra_refresh=0 / rc_lookahead=60 / rc=2pass / mbtree=1 / bitrate=10300 / ratetol=1.0 / qcomp=0.60 / qpmin=0 / qpmax=69 / qpstep=4 / cplxblur=20.0 / qblur=0.5 / vbv_maxrate=50000 / vbv_bufsize=60500 / nal_hrd=none / filler=0 / ip_ratio=1.40 / aq=1:1.00
Language : English
Default : Yes
Forced : No
Color range : Limited
Color primaries : BT.709
Transfer characteristics : BT.709
Matrix coefficients : BT.709

Audio #1
ID : 2
Format : AC-3
Format/Info : Audio Coding 3
Commercial name : Dolby Digital
Codec ID : A_AC3
Duration : 1 h 30 min
Bit rate mode : Constant
Bit rate : 448 kb/s
Channel(s) : 6 channels
Channel layout : L R C LFE Ls Rs
Sampling rate : 48.0 kHz
Frame rate : 31.250 FPS (1536 SPF)
Compression mode : Lossy
Stream size : 289 MiB (4%)
Title : DVO | LakeFilms
Language : Russian
Service kind : Complete Main
Default : Yes
Forced : No

Audio #2
ID : 3
Format : AC-3
Format/Info : Audio Coding 3
Commercial name : Dolby Digital
Codec ID : A_AC3
Duration : 1 h 30 min
Bit rate mode : Constant
Bit rate : 640 kb/s
Channel(s) : 6 channels
Channel layout : L R C LFE Ls Rs
Sampling rate : 48.0 kHz
Frame rate : 31.250 FPS (1536 SPF)
Compression mode : Lossy
Stream size : 413 MiB (6%)
Language : English
Service kind : Complete Main
Default : No
Forced : No

Text #1
ID : 4
Format : UTF-8
Codec ID : S_TEXT/UTF8
Codec ID/Info : UTF-8 Plain Text
Duration : 1 h 21 min
Bit rate : 1 b/s
Count of elements : 13
Stream size : 1.01 KiB (0%)
Title : Forced
Language : Russian
Default : Yes
Forced : No

Text #2
ID : 5
Format : UTF-8
Codec ID : S_TEXT/UTF8
Codec ID/Info : UTF-8 Plain Text
Duration : 1 h 25 min
Bit rate : 40 b/s
Count of elements : 1018
Stream size : 25.5 KiB (0%)
Language : English
Default : No
Forced : No

Text #3
ID : 6
Format : UTF-8
Codec ID : S_TEXT/UTF8
Codec ID/Info : UTF-8 Plain Text
Duration : 1 h 27 min
Bit rate : 47 b/s
Count of elements : 1278
Stream size : 30.2 KiB (0%)
Title : SDH
Language : English
Default : No
Forced : No

Text #4
ID : 7
Format : PGS
Muxing mode : zlib
Codec ID : S_HDMV/PGS
Codec ID/Info : Picture based subtitle format used on BDs/HD-DVDs
Duration : 1 h 27 min
Bit rate : 12.2 kb/s
Count of elements : 2560
Stream size : 7.64 MiB (0%)
Language : English
Default : No
Forced : No

Menu
00:00:00.000 : en:Chapter 1
00:04:40.738 : en:Chapter 2
00:07:42.962 : en:Chapter 3
00:10:24.040 : en:Chapter 4
00:13:20.549 : en:Chapter 5
00:16:57.933 : en:Chapter 6
00:22:37.022 : en:Chapter 7
00:27:25.143 : en:Chapter 8
00:34:08.212 : en:Chapter 9
00:37:32.375 : en:Chapter 10
00:41:21.479 : en:Chapter 11
00:45:38.736 : en:Chapter 12
00:50:02.791 : en:Chapter 13
00:53:25.076 : en:Chapter 14
00:59:17.595 : en:Chapter 15
01:04:19.939 : en:Chapter 16
01:09:16.110 : en:Chapter 17
01:11:32.288 : en:Chapter 18
01:14:18.829 : en:Chapter 19
01:19:24.968 : en:Chapter 20
01:24:45.080 : en:Chapter 21
Скриншоты
 

Вложения

  • 18,9 KB Просмотры: 0
    Личеров 0
    Сидеров 0
    Файлов 1
    Объем 7,2 GB

Привет!

Мы группа людей которые решили помочь другим в решении их проблем, а так же пользователям с поиском самых свежих и качественных инфопродуктов. За 4 с небольшим месяца мы создали этот форум на который заходят ежедневно тысячи человек и посещаемость постоянно растёт. Мы создали панель лицензирования для защиты PHP скриптов от воровства и SEO панель для мониторинга наших сайтов и выбора верной стратегии их развития. Мы надеемся что то что мы создали пригодится Вам и возможно Вы поможете нам развиваться и совершенствоваться вместе с Вами.

Статистика форума

Темы
406.601
Сообщения
464.985
Пользователи
84.248
Новый пользователь
kkkkkkkrrrimmmh

Приложения форума для iOS и Android


У ркн там нет власти ;)
Приватные разговоры
Помощь Пользователи
    Вы не присоединились ни к одной комнате.