За последнюю неделю опубликовано 29 новых материалов.
Инструкция новичку Путеводитель по форуму Прокси для Telegram Показать подсказки , это бомба!

Скачать Девять ярдов / The Whole Nine Yards (2000) WEB-DLRip 720p от KORSAR | D, P, A бесплатно через торрент

  • Поучаствуй (в качестве покупателя) в любых пяти совместных покупках (кроме завершённых и "Моментальных") и получи группу "Новичок" навсегда -> ссылка на раздел
  • Получай до 480 рублей за каждого приглашенного пользователя!
    представляем Вам очередное расширение партнерской программы, подробности описаны тут -> ссылка
  • 90% материалов доступно к скачиванию после простой регистрации!
    Если же ты хочешь скачивать материалы без требования оставлять отзывы то получи группу "Новичок", 10 способов повышения описаны тут -> ссылка
  • К сожалению количество битых ссылок растет и мы уже не можем их оперативно восстанавливать поэтому просим помощи у каждого нашего пользователя.
    С сегодняшнего дня, за каждую восстановленную ссылку мы заплатим Вам.
    Подробнее тут -> ссылка
  • Перенесем твои заслуги с другого ресурса!
    Мы понимаем как сложно прокачивать аккаунты на форумах, вроде раскачал аккаунт, а тут появляется ресурс в 100 раз круче но тоже с системой прокачки и снова качать аккаунт...
    Предлагаем вам перенести Ваши заслуги на другом подобном ресурсе к нам.
    Подробности описаны тут -> ссылка
  • Вы можете получать по 2.5% с каждой покупки и продажи на маркете! Подробности в теме Партнёрская программа
Если Вы не хотите скачивать, Вы всегда можетепосмотретьонлайн, просто нажмите кнопку ниже :

Открыть плеер

Torrent_Bot

Торрент-Бот
Бот форума
4 Окт 2016
93
155
20
Информация о фильме
Название: Девять ярдов
Оригинальное название: The Whole Nine Yards
Год выпуска: 2000
Выпущено: США, Franchise Pictures, Lansdown Films, Morgan Creek Productions, Nine Yards Productions LLC, Rational Packaging Company
Жанр:Комедия, криминал
Режиссер: Джонатан Линн
В ролях: Брюс Уиллис, Мэттью Перри, Аманда Пит, Наташа Хенстридж, Розанна Аркетт, Майкл Кларк Дункан, Кевин Поллак, Харланд Уильямс, Кармен Ферланд, Серж Кристианссенс, Рени Мадлен Ле Гверрир, Жан-Ги Бочар, Ховард Билерман, Джонни Гоар, Диано Клаве, Стефани Биддл, Чарльз Биддл ст., Джофф Лэпп, Гари Голд, Роберт Барнс, Френс Арбур, Шон Дивайн, Ричард Джутрас, Марк Камачо, Джоэнна Нойес

О фильме: Николас Озерански - для друзей просто Оз - вел спокойную, размеренную жизнь. Он был неплохим дантистом, жил в престижном пригороде Монреаля и мучился со стервой - женой, от которой никак не мог избавиться. Знакомство с новым соседом положило этой жизни конец раз и навсегда... Джимми Тюльпан был профессиональным убийцей в клане чикагского мафиози Ласло Гоголака.

Продолжительность: 01:38:51
Перевод: Дублированный, профессиональный многоголосый, профессиональный двухголосый, авторский
Субтитры: Русские - форсированные на Визгунова (неозвученные места), русские полные, английские полные, английские SDH, финские
Навигация по главам: Есть

Файл
Качество: WEB-DLRip 720p
Видео: MPEG-4 AVC, 5755 Кбит/сек, 1280x720, 23,976 кадра/сек
Аудио #1: AC3, 6 ch, 448 Кбит/сек | Русский, профессиональный (полное дублирование)
Аудио #2: AC3, 6 ch, 448 Кбит/сек | Русский, профессиональный (многоголосый закадровый)
Аудио #3: AC3, 2 ch, 192 Кбит/сек | Русский, профессиональный (многоголосый закадровый) РТР
Аудио #4: AC3, 6 ch, 448 Кбит/сек | Русский, авторский (одноголосый закадровый) Андрей Гаврилов
Аудио #5: AC3, 6 ch, 448 Кбит/сек | Русский, авторский (одноголосый закадровый) Сергей Визгунов
Аудио #6: EAC3, 6 ch, 640 Кбит/сек | Английский, оригинал



Скриншоты
Инфо-файл
x264 [info]: frame I:1169 Avg QP:13.47 size:139612
x264 [info]: frame P:36297 Avg QP:16.07 size: 55392
x264 [info]: frame B:104742 Avg QP:17.50 size: 19980
-----------------------------------------------------
Общее
Уникальный идентификатор : 208455223840659945981040147495546291140 (0x9CD304093B5B97A4A298D22CEC7C83C4)
Полное имя : Девять.ярдов.2000.WEB-DLRip.720p.KORSAR.mkv
Формат : Matroska
Версия формата : Version 2
Размер файла : 5,79 Гбайт
Продолжительность : 1 ч. 38 м.
Общий поток : 8382 Кбит/сек
Дата кодирования : UTC 2017-10-26 22:23:08
Программа кодирования : mkvmerge v5.8.0 ('No Sleep / Pillow') built on Sep 2 2012 15:37:04
Библиотека кодирования : libebml v1.2.3 + libmatroska v1.3.0

Видео
Идентификатор : 1
Формат : AVC
Формат/Информация : Advanced Video Codec
Профиль формата : High@L4.1
Параметр CABAC формата : Да
Параметр ReFrames формата : 9 кадров
Идентификатор кодека : V_MPEG4/ISO/AVC
Продолжительность : 1 ч. 38 м.
Битрейт : 5755 Кбит/сек
Ширина : 1280 пикселей
Высота : 720 пикселей
Соотношение сторон : 16:9
Режим частоты кадров : Постоянный
Частота кадров : 23,976 (24000/1001) кадра/сек
Цветовое пространство : YUV
Субдискретизация насыщенности : 4:2:0
Битовая глубина : 8 бит
Тип развёртки : Прогрессивная
Бит/(Пиксели*Кадры) : 0.260
Размер потока : 3,86 Гбайт (67%)
Заголовок : RIP | MZMA
Библиотека кодирования : x264 core 148 r2638 7599210
Настройки программы : cabac=1 / ref=9 / deblock=1:-3:-3 / analyse=0x3:0x113 / me=umh / subme=11 / psy=1 / psy_rd=1.00:0.00 / mixed_ref=1 / me_range=48 / chroma_me=1 / trellis=2 / 8x8dct=1 / cqm=0 / deadzone=21,11 / fast_pskip=0 / chroma_qp_offset=-2 / threads=6 / lookahead_threads=1 / sliced_threads=0 / nr=0 / decimate=0 / interlaced=0 / bluray_compat=0 / constrained_intra=0 / bframes=16 / b_pyramid=2 / b_adapt=2 / b_bias=0 / direct=3 / weightb=1 / open_gop=0 / weightp=2 / keyint=240 / keyint_min=23 / scenecut=40 / intra_refresh=0 / rc_lookahead=40 / rc=2pass / mbtree=0 / bitrate=5755 / ratetol=1.0 / qcomp=0.60 / qpmin=0 / qpmax=69 / qpstep=4 / cplxblur=20.0 / qblur=0.5 / vbv_maxrate=50000 / vbv_bufsize=62500 / nal_hrd=none / filler=0 / ip_ratio=1.40 / pb_ratio=1.30 / aq=3:0.90
Язык : English
По умолчанию : Да
Принудительно : Нет
Цветовой диапазон : Limited
Основные цвета : BT.709
Характеристики трансфера : BT.709
Коэффициенты матрицы : BT.709

Аудио #1
Идентификатор : 2
Формат : AC-3
Формат/Информация : Audio Coding 3
Параметр Endianness формата : Big
Идентификатор кодека : A_AC3
Продолжительность : 1 ч. 38 м.
Вид битрейта : Постоянный
Битрейт : 448 Кбит/сек
Каналы : 6 каналов
Расположение каналов : Front: L C R, Side: L R, LFE
Частота : 48,0 КГц
Частота кадров : 31,250 кадров/сек (1536 spf)
Битовая глубина : 16 бит
Метод сжатия : С потерями
Размер потока : 317 Мбайт (5%)
Заголовок : DUB
Язык : Russian
По умолчанию : Да
Принудительно : Нет

Аудио #2
Идентификатор : 3
Формат : AC-3
Формат/Информация : Audio Coding 3
Параметр Endianness формата : Big
Идентификатор кодека : A_AC3
Продолжительность : 1 ч. 38 м.
Вид битрейта : Постоянный
Битрейт : 448 Кбит/сек
Каналы : 6 каналов
Расположение каналов : Front: L C R, Side: L R, LFE
Частота : 48,0 КГц
Частота кадров : 31,250 кадров/сек (1536 spf)
Битовая глубина : 16 бит
Метод сжатия : С потерями
Размер потока : 317 Мбайт (5%)
Заголовок : MVO
Язык : Russian
По умолчанию : Нет
Принудительно : Нет

Аудио #3
Идентификатор : 4
Формат : AC-3
Формат/Информация : Audio Coding 3
Параметр Endianness формата : Big
Идентификатор кодека : A_AC3
Продолжительность : 1 ч. 38 м.
Вид битрейта : Постоянный
Битрейт : 192 Кбит/сек
Каналы : 2 канала
Расположение каналов : Front: L R
Частота : 48,0 КГц
Частота кадров : 31,250 кадров/сек (1536 spf)
Битовая глубина : 16 бит
Метод сжатия : С потерями
Размер потока : 136 Мбайт (2%)
Заголовок : MVO | РТР
Язык : Russian
По умолчанию : Нет
Принудительно : Нет

Аудио #4
Идентификатор : 5
Формат : AC-3
Формат/Информация : Audio Coding 3
Параметр Endianness формата : Big
Идентификатор кодека : A_AC3
Продолжительность : 1 ч. 38 м.
Вид битрейта : Постоянный
Битрейт : 448 Кбит/сек
Каналы : 6 каналов
Расположение каналов : Front: L C R, Side: L R, LFE
Частота : 48,0 КГц
Частота кадров : 31,250 кадров/сек (1536 spf)
Битовая глубина : 16 бит
Метод сжатия : С потерями
Размер потока : 317 Мбайт (5%)
Заголовок : AVO | А. Гаврилов
Язык : Russian
По умолчанию : Нет
Принудительно : Нет

Аудио #5
Идентификатор : 6
Формат : AC-3
Формат/Информация : Audio Coding 3
Параметр Endianness формата : Big
Идентификатор кодека : A_AC3
Продолжительность : 1 ч. 38 м.
Вид битрейта : Постоянный
Битрейт : 448 Кбит/сек
Каналы : 6 каналов
Расположение каналов : Front: L C R, Side: L R, LFE
Частота : 48,0 КГц
Частота кадров : 31,250 кадров/сек (1536 spf)
Битовая глубина : 16 бит
Метод сжатия : С потерями
Размер потока : 317 Мбайт (5%)
Заголовок : AVO | С. Визгунов
Язык : Russian
По умолчанию : Нет
Принудительно : Нет

Аудио #6
Идентификатор : 7
Формат : E-AC-3
Формат/Информация : Enhanced Audio Coding 3
Параметр Endianness формата : Big
Идентификатор кодека : A_EAC3
Продолжительность : 1 ч. 38 м.
Вид битрейта : Постоянный
Битрейт : 640 Кбит/сек
Каналы : 6 каналов
Расположение каналов : Front: L C R, Side: L R, LFE
Частота : 48,0 КГц
Частота кадров : 187,500 кадров/сек (256 spf)
Метод сжатия : С потерями
Размер потока : 453 Мбайт (8%)
Заголовок : Original
Язык : English
По умолчанию : Нет
Принудительно : Нет

Текст #1
Идентификатор : 8
Формат : UTF-8
Идентификатор кодека : S_TEXT/UTF8
Идентификатор кодека/Информация : UTF-8 Plain Text
Заголовок : Форсированные | С. Визгунов
Язык : Russian
По умолчанию : Нет
Принудительно : Нет

Текст #2
Идентификатор : 9
Формат : UTF-8
Идентификатор кодека : S_TEXT/UTF8
Идентификатор кодека/Информация : UTF-8 Plain Text
Язык : Russian
По умолчанию : Нет
Принудительно : Нет

Текст #3
Идентификатор : 10
Формат : UTF-8
Идентификатор кодека : S_TEXT/UTF8
Идентификатор кодека/Информация : UTF-8 Plain Text
Язык : English
По умолчанию : Нет
Принудительно : Нет

Текст #4
Идентификатор : 11
Формат : UTF-8
Идентификатор кодека : S_TEXT/UTF8
Идентификатор кодека/Информация : UTF-8 Plain Text
Заголовок : SDH
Язык : English
По умолчанию : Нет
Принудительно : Нет

Текст #5
Идентификатор : 12
Формат : UTF-8
Идентификатор кодека : S_TEXT/UTF8
Идентификатор кодека/Информация : UTF-8 Plain Text
Язык : Finnish
По умолчанию : Нет
Принудительно : Нет

Меню
00:00:00.000 : en:25.
00:00:01.024 : en:1.
00:02:54.000 : en:2.
00:05:11.000 : en:3.
00:07:23.000 : en:4.
00:11:33.000 : en:5.
00:15:15.000 : en:6.
00:19:32.000 : en:7.
00:23:01.000 : en:8.
00:28:16.000 : en:9.
00:30:29.000 : en:10.
00:36:40.000 : en:11.
00:39:24.000 : en:12.
00:45:45.000 : en:13.
00:47:14.000 : en:14.
00:53:44.000 : en:15.
00:57:59.000 : en:16.
01:02:29.000 : en:17.
01:05:54.000 : en:18.
01:09:27.000 : en:19.
01:14:10.000 : en:20.
01:18:57.000 : en:21.
01:23:50.000 : en:22.
01:28:04.000 : en:23.
01:31:47.000 : en:24.
Скачать сэмпл
Devyatj.yardov.2000.WEB-DLRip.720p.KORSAR_sample.mkv
Релиз от:
 

Вложения

  • 29,9 KB Просмотры: 1
    Личеров 0
    Сидеров 0
    Файлов 1
    Объем 5,8 GB

Привет!

Мы группа людей которые решили помочь другим в решении их проблем, а так же пользователям с поиском самых свежих и качественных инфопродуктов. За 4 с небольшим месяца мы создали этот форум на который заходят ежедневно тысячи человек и посещаемость постоянно растёт. Мы создали панель лицензирования для защиты PHP скриптов от воровства и SEO панель для мониторинга наших сайтов и выбора верной стратегии их развития. Мы надеемся что то что мы создали пригодится Вам и возможно Вы поможете нам развиваться и совершенствоваться вместе с Вами.

Статистика форума

Темы
406.535
Сообщения
464.632
Пользователи
83.207
Новый пользователь
kingartur9719

Приложения форума для iOS и Android


У ркн там нет власти ;)
Приватные разговоры
Помощь Пользователи
    Вы не присоединились ни к одной комнате.