За последнюю неделю опубликовано 57 новых материалов.
Инструкция новичку Путеводитель по форуму Прокси для Telegram Показать подсказки , это бомба!

Скачать Девять ярдов 2 / The Whole Ten Yards (2004) BDRip-AVC от ExKinoRay | D, P, A бесплатно через торрент

  • Поучаствуй (в качестве покупателя) в любых пяти совместных покупках (кроме завершённых и "Моментальных") и получи группу "Новичок" навсегда -> ссылка на раздел
  • Получай до 480 рублей за каждого приглашенного пользователя!
    представляем Вам очередное расширение партнерской программы, подробности описаны тут -> ссылка
  • 90% материалов доступно к скачиванию после простой регистрации!
    Если же ты хочешь скачивать материалы без требования оставлять отзывы то получи группу "Новичок", 10 способов повышения описаны тут -> ссылка
  • К сожалению количество битых ссылок растет и мы уже не можем их оперативно восстанавливать поэтому просим помощи у каждого нашего пользователя.
    С сегодняшнего дня, за каждую восстановленную ссылку мы заплатим Вам.
    Подробнее тут -> ссылка
  • Перенесем твои заслуги с другого ресурса!
    Мы понимаем как сложно прокачивать аккаунты на форумах, вроде раскачал аккаунт, а тут появляется ресурс в 100 раз круче но тоже с системой прокачки и снова качать аккаунт...
    Предлагаем вам перенести Ваши заслуги на другом подобном ресурсе к нам.
    Подробности описаны тут -> ссылка
  • Вы можете получать по 2.5% с каждой покупки и продажи на маркете! Подробности в теме Партнёрская программа
Если Вы не хотите скачивать, Вы всегда можетепосмотретьонлайн, просто нажмите кнопку ниже :

Открыть плеер

Torrent_Bot

Торрент-Бот
Бот форума
4 Окт 2016
92
163
20


Информация о фильме
Название: Десять ярдов / Девять ярдов 2
Оригинальное название: The Whole Ten Yards
Год выхода: 2004
Жанр: Триллер, комедия, криминал
Режиссер: Ховард Дойч
В ролях: Брюс Уиллис, Мэттью Перри, Аманда Пит, Наташа Хенстридж, Кевин Поллак, Силас Уир Митчелл, Таша Смит, Таллула Белль Уиллис, Джонни Уильямс, Карлос Запата, МакНалли Сагал, Карл Киарфалио, Док Дюаме, Монте Рекс Перлин, Нед Беллами, Лу Битти мл., Бэрри Томпсон, Фрэнк Пеше, Роберт Раслер, Джули Лотт, Брэд Оррисон, Фрэнк Коллисон, Джонни Месснер

О фильме:
Множество неприятностей происходит в жизни нашего любимого дантиста из Беверли Хиллз, Николаса Озерански. Хорошая новость — то что его жена Синтия беременна. А плохая новость? Его одолела паранойя. Известный главарь венгерской мафии Лазло вышел из тюрьмы и хочет вернуть деньги, которые Озз и Джими-Тюльпан увели у него из под носа. Лазло пойдет на всё, чтобы вернуть свои деньги, и для этой цели он похищает беременную Синтию… История закручивается всё сильней и сильней, но это же всего лишь один день из жизни наших героев…



Страна: США
Студия: Cheyenne Enterprises, Franchise Pictures, MHF Zweite Academy Film
Продолжительность: 01:38:33
Перевод: Дублированный, профессиональный многоголосый, авторский

Файл
Формат: MKV
Качество: BDRip-AVC
Видео: MPEG-4 AVC, 1024x576, - 2650 Кбит/с
Аудио #1: AC3, 6 ch, 448 Кбит/сек | RUS | Дубляж
Аудио #2: AC3, 6 ch, 384 Кбит/сек | RUS | Профессиональный многоголосый
Аудио #3: AC3, 6 ch, 448 Кбит/сек | RUS | Авторский, Юрий Живов
Аудио #4: AC3, 6 ch, 640 Кбит/сек | ENG | Оригинал
Субтитры: Русские (полные, форсированные), английские

MI
x264 [info]: frame I:1583 Avg QP:17.23 size: 80048
x264 [info]: frame P:31051 Avg QP:20.32 size: 28122
x264 [info]: frame B:109277 Avg QP:21.78 size: 8756

Общее
Уникальный идентификатор : 99337379977688578250988390178057262526 (0x4ABBAEF7DD1D4E060EE7F80C4B7E95BE)
Полное имя : D:MOVIESDevjat_jardov.II.2004.BDRip-AVC.ExKinoRay.mkv
Формат : Matroska
Версия формата : Version 4
Размер файла : 3,15 Гбайт
Продолжительность : 1 ч. 38 м.
Общий поток : 4 570 Кбит/сек
Дата кодирования : UTC 2020-08-01 19:16:34
Программа кодирования : mkvmerge v45.0.0 ('Heaven in Pennies') 64-bit
Библиотека кодирования : libebml v1.3.10 + libmatroska v1.5.2

Видео
Идентификатор : 1
Формат : AVC
Формат/Информация : Advanced Video Codec
Профиль формата : [email protected]
Настройки формата : CABAC / 13 Ref Frames
Параметр CABAC формата : Да
Параметр RefFrames формата : 13 кадров
Идентификатор кодека : V_MPEG4/ISO/AVC
Продолжительность : 1 ч. 38 м.
Битрейт : 2 650 Кбит/сек
Ширина : 1 024 пикселя
Высота : 576 пикселей
Соотношение сторон : 16:9
Режим частоты кадров : Постоянный
Частота кадров : 24,000 кадра/сек
Цветовое пространство : YUV
Субдискретизация насыщенности : 4:2:0
Битовая глубина : 8 бит
Тип развёртки : Прогрессивная
Бит/(Пиксели*Кадры) : 0.187
Размер потока : 1,82 Гбайт (58%)
Библиотека кодирования : x264 core 160 r3000 33f9e14
Настройки программы : cabac=1 / ref=13 / deblock=1:-3:-3 / analyse=0x3:0x133 / me=umh / subme=10 / psy=1 / psy_rd=1.05:0.12 / mixed_ref=1 / me_range=32 / chroma_me=1 / trellis=2 / 8x8dct=1 / cqm=0 / deadzone=21,11 / fast_pskip=0 / chroma_qp_offset=-3 / threads=6 / lookahead_threads=1 / sliced_threads=0 / nr=0 / decimate=0 / interlaced=0 / bluray_compat=0 / constrained_intra=0 / bframes=12 / b_pyramid=2 / b_adapt=2 / b_bias=0 / direct=3 / weightb=1 / open_gop=0 / weightp=2 / keyint=240 / keyint_min=24 / scenecut=40 / intra_refresh=0 / rc=2pass / mbtree=0 / bitrate=2650 / ratetol=1.0 / qcomp=0.60 / qpmin=0 / qpmax=69 / qpstep=4 / cplxblur=20.0 / qblur=0.5 / ip_ratio=1.40 / pb_ratio=1.30 / aq=1:1.00
Язык : English
Default : Да
Forced : Нет
Цветовой диапазон : Limited
Основные цвета : BT.709
Характеристики трансфера : BT.709
Коэффициенты матрицы : BT.709

Аудио #1
Идентификатор : 2
Формат : AC-3
Формат/Информация : Audio Coding 3
Коммерческое название : Dolby Digital
Идентификатор кодека : A_AC3
Продолжительность : 1 ч. 38 м.
Вид битрейта : Постоянный
Битрейт : 448 Кбит/сек
Каналы : 6 каналов
Channel layout : L R C LFE Ls Rs
Частота : 48,0 КГц
Частота кадров : 31,250 кадров/сек (1536 SPF)
Метод сжатия : С потерями
Размер потока : 316 Мбайт (10%)
Заголовок : Dub
Язык : Russian
Service kind : Complete Main
Default : Да
Forced : Нет

Аудио #2
Идентификатор : 3
Формат : AC-3
Формат/Информация : Audio Coding 3
Коммерческое название : Dolby Digital
Идентификатор кодека : A_AC3
Продолжительность : 1 ч. 38 м.
Вид битрейта : Постоянный
Битрейт : 384 Кбит/сек
Каналы : 6 каналов
Channel layout : L R C LFE Ls Rs
Частота : 48,0 КГц
Частота кадров : 31,250 кадров/сек (1536 SPF)
Метод сжатия : С потерями
Размер потока : 271 Мбайт (8%)
Заголовок : MVO
Язык : Russian
Service kind : Complete Main
Default : Нет
Forced : Нет

Аудио #3
Идентификатор : 4
Формат : AC-3
Формат/Информация : Audio Coding 3
Коммерческое название : Dolby Digital
Идентификатор кодека : A_AC3
Продолжительность : 1 ч. 38 м.
Вид битрейта : Постоянный
Битрейт : 448 Кбит/сек
Каналы : 6 каналов
Channel layout : L R C LFE Ls Rs
Частота : 48,0 КГц
Частота кадров : 31,250 кадров/сек (1536 SPF)
Метод сжатия : С потерями
Задержка видео : 6 мс.
Размер потока : 316 Мбайт (10%)
Заголовок : Юрий Живов
Язык : Russian
Service kind : Complete Main
Default : Нет
Forced : Нет

Аудио #4
Идентификатор : 5
Формат : AC-3
Формат/Информация : Audio Coding 3
Коммерческое название : Dolby Digital
Идентификатор кодека : A_AC3
Продолжительность : 1 ч. 38 м.
Вид битрейта : Постоянный
Битрейт : 640 Кбит/сек
Каналы : 6 каналов
Channel layout : L R C LFE Ls Rs
Частота : 48,0 КГц
Частота кадров : 31,250 кадров/сек (1536 SPF)
Метод сжатия : С потерями
Размер потока : 451 Мбайт (14%)
Язык : English
Service kind : Complete Main
Default : Нет
Forced : Нет

Текст #1
Идентификатор : 6
Формат : UTF-8
Идентификатор кодека : S_TEXT/UTF8
Идентификатор кодека/Информация : UTF-8 Plain Text
Продолжительность : 1 ч. 33 м.
Битрейт : 2 бит/сек
Count of elements : 35
Размер потока : 1,70 Кбайт (0%)
Заголовок : форсированные
Язык : Russian
Default : Да
Forced : Да

Текст #2
Идентификатор : 7
Формат : UTF-8
Идентификатор кодека : S_TEXT/UTF8
Идентификатор кодека/Информация : UTF-8 Plain Text
Продолжительность : 1 ч. 33 м.
Битрейт : 140 бит/сек
Count of elements : 1626
Размер потока : 96,5 Кбайт (0%)
Заголовок : Полные
Язык : Russian
Default : Нет
Forced : Нет

Текст #3
Идентификатор : 8
Формат : UTF-8
Идентификатор кодека : S_TEXT/UTF8
Идентификатор кодека/Информация : UTF-8 Plain Text
Продолжительность : 1 ч. 33 м.
Битрейт : 77 бит/сек
Count of elements : 1367
Размер потока : 52,9 Кбайт (0%)
Язык : English
Default : Нет
Forced : Нет

Меню
00:00:00.000 : en:Chapter 01
00:03:33.338 : en:Chapter 02
00:08:00.688 : en:Chapter 03
00:10:28.628 : en:Chapter 04
00:13:58.045 : en:Chapter 05
00:17:02.021 : en:Chapter 06
00:20:16.089 : en:Chapter 07
00:22:11.330 : en:Chapter 08
00:26:37.887 : en:Chapter 09
00:30:32.038 : en:Chapter 10
00:34:29.776 : en:Chapter 11
00:36:00.992 : en:Chapter 12
00:38:18.087 : en:Chapter 13
00:40:37.101 : en:Chapter 14
00:45:53.792 : en:Chapter 15
00:48:53.847 : en:Chapter 16
00:51:58.156 : en:Chapter 17
00:54:43.113 : en:Chapter 18
00:57:51.426 : en:Chapter 19
01:00:48.186 : en:Chapter 20
01:03:26.594 : en:Chapter 21
01:07:09.567 : en:Chapter 22
01:09:43.596 : en:Chapter 23
01:13:11.470 : en:Chapter 24
01:15:31.860 : en:Chapter 25
01:17:27.726 : en:Chapter 26
01:19:30.098 : en:Chapter 27
01:24:50.710 : en:Chapter 28
01:26:58.254 : en:Chapter 29
01:31:04.250 : en:Chapter 30
01:34:03.679 : en:Chapter 31
01:37:33.180 : en:Chapter 32
Скриншоты

 

Вложения

  • 16,8 KB Просмотры: 0
    Личеров 0
    Сидеров 0
    Файлов 1
    Объем 3,1 GB

Привет!

Мы группа людей которые решили помочь другим в решении их проблем, а так же пользователям с поиском самых свежих и качественных инфопродуктов. За 4 с небольшим месяца мы создали этот форум на который заходят ежедневно тысячи человек и посещаемость постоянно растёт. Мы создали панель лицензирования для защиты PHP скриптов от воровства и SEO панель для мониторинга наших сайтов и выбора верной стратегии их развития. Мы надеемся что то что мы создали пригодится Вам и возможно Вы поможете нам развиваться и совершенствоваться вместе с Вами.

Статистика форума

Темы
406.698
Сообщения
465.162
Пользователи
84.789
Новый пользователь
Setis

Приложения форума для iOS и Android


У ркн там нет власти ;)
Приватные разговоры
Помощь Пользователи
    Вы не присоединились ни к одной комнате.