За последнюю неделю опубликовано 85 новых материалов.
Инструкция новичку Путеводитель по форуму Прокси для Telegram Показать подсказки , это бомба!

Скачать Детская любовь / Baby love (1968) BDRemux 1080p | A бесплатно через торрент

  • Поучаствуй (в качестве покупателя) в любых пяти совместных покупках (кроме завершённых и "Моментальных") и получи группу "Новичок" навсегда -> ссылка на раздел
  • Получай до 480 рублей за каждого приглашенного пользователя!
    представляем Вам очередное расширение партнерской программы, подробности описаны тут -> ссылка
  • 90% материалов доступно к скачиванию после простой регистрации!
    Если же ты хочешь скачивать материалы без требования оставлять отзывы то получи группу "Новичок", 10 способов повышения описаны тут -> ссылка
  • К сожалению количество битых ссылок растет и мы уже не можем их оперативно восстанавливать поэтому просим помощи у каждого нашего пользователя.
    С сегодняшнего дня, за каждую восстановленную ссылку мы заплатим Вам.
    Подробнее тут -> ссылка
  • Перенесем твои заслуги с другого ресурса!
    Мы понимаем как сложно прокачивать аккаунты на форумах, вроде раскачал аккаунт, а тут появляется ресурс в 100 раз круче но тоже с системой прокачки и снова качать аккаунт...
    Предлагаем вам перенести Ваши заслуги на другом подобном ресурсе к нам.
    Подробности описаны тут -> ссылка
  • Вы можете получать по 2.5% с каждой покупки и продажи на маркете! Подробности в теме Партнёрская программа
Если Вы не хотите скачивать, Вы всегда можетепосмотретьонлайн, просто нажмите кнопку ниже :

Открыть плеер

Torrent_Bot

Торрент-Бот
Бот форума
4 Окт 2016
102
152
20



Информация о фильме
Название: Детская любовь
Оригинальное название: Baby love
Год выхода: 1968
Жанр: Драма
Режиссер: Аластер Рейд
В ролях: Дайана Дорс, Линда Хейден, Трой Данте, Энн Линн, Шила Стифел, Дик Эмери, Кит Баррон, Льюис Уилсон, Пейшнс Колльер

О фильме:
История пятнадцатилетней Люси. Когда её мать совершает самоубийство, осиротевшую школьницу берёт на содержание богатое семейство. Там Люси сталкивается с назойливым вниманием подрастающего отпрыска, но он её совершенно не интересует. Цель Люси — отомстить главе семьи, поскольку именно его она считает виновным в смерти матери. Месть принимает неожиданную форму: девушка соблазняет… его жену.



Страна: Великобритания
Студия: Avton Films
Продолжительность: 01:36:05
Перевод: Авторский (одноголосый) (В.Котов)

Файл
Кодек: h.264
Качество: BDRemux 1080p
Видео: MPEG4/AVC, 1920x1080, ~25.0 Мbps, 24.000 FPS
Аудио #1: AC3, 2 ch, 192 kbps - Русский (AVO)
Аудио #2: PCM, 2 ch, 1536 kbps - Английский (Оригинал)
Субтитры: Английские
MI:
General
Unique ID : 40976132975736607279607183748519930265 (0x1ED3B755A08C1F9E08737CECBF47A999)
Complete name : F:Новая папка (27)Baby.Love.1969.BDREMUX 1080p.mkv
Format : Matroska
Format version : Version 4
File size : 17.9 GiB
Duration : 1 h 36 min
Overall bit rate mode : Variable
Overall bit rate : 26.7 Mb/s
Movie name : Baby.Love.1969.BDREMUX 1080p
Encoded date : UTC 2020-07-21 22:15:04
Writing application : mkvmerge v29.0.0 ('Like It Or Not') 64-bit
Writing library : libebml v1.3.6 + libmatroska v1.4.9
Cover : Yes
Attachments : cover_land.jpg / small_cover.jpg / small_cover_land.jpg / cover.jpg

Video
ID : 1
Format : AVC
Format/Info : Advanced Video Codec
Format profile : High@L4.1
Format settings : CABAC / 3 Ref Frames
Format settings, CABAC : Yes
Format settings, RefFrames : 3 frames
Format settings, GOP : M=3, N=12
Codec ID : V_MPEG4/ISO/AVC
Duration : 1 h 36 min
Bit rate mode : Variable
Bit rate : 25.0 Mb/s
Maximum bit rate : 33.0 Mb/s
Width : 1 920 pixels
Height : 1 080 pixels
Display aspect ratio : 16:9
Frame rate mode : Constant
Frame rate : 24.000 FPS
Standard : NTSC
Color space : YUV
Chroma subsampling : 4:2:0
Bit depth : 8 bits
Scan type : Progressive
Bits/(Pixel*Frame) : 0.502
Stream size : 16.8 GiB (94%)
Title : Baby.Love.1969.BDREMUX 1080p
Language : English
Default : No
Forced : No
Color range : Limited
Color primaries : BT.709
Transfer characteristics : BT.709
Matrix coefficients : BT.709

Audio #1
ID : 2
Format : AC-3
Format/Info : Audio Coding 3
Commercial name : Dolby Digital
Codec ID : A_AC3
Duration : 1 h 36 min
Bit rate mode : Constant
Bit rate : 192 kb/s
Channel(s) : 2 channels
Channel layout : L R
Sampling rate : 48.0 kHz
Frame rate : 31.250 FPS (1536 SPF)
Bit depth : 16 bits
Compression mode : Lossy
Stream size : 132 MiB (1%)
Title : VO (Вячеслав Котов)
Language : Russian
Service kind : Complete Main
Default : Yes
Forced : No

Audio #2
ID : 3
Format : PCM
Format settings : Little / Signed
Codec ID : A_PCM/INT/LIT
Duration : 1 h 36 min
Bit rate mode : Constant
Bit rate : 1 536 kb/s
Channel(s) : 2 channels
Sampling rate : 48.0 kHz
Frame rate : 30.000 FPS (1600 SPF)
Bit depth : 16 bits
Stream size : 1.03 GiB (6%)
Title : Original (Eng)
Language : English
Default : No
Forced : No

Text
ID : 4
Format : UTF-8
Codec ID : S_TEXT/UTF8
Codec ID/Info : UTF-8 Plain Text
Duration : 1 h 30 min
Bit rate : 30 b/s
Count of elements : 876
Stream size : 20.0 KiB (0%)
Title : English-SRT
Language : English
Default : No
Forced : No

Menu
00:00:00.000 : en:Chapter 01
00:10:18.916 : en:Chapter 02
00:20:08.000 : en:Chapter 03
00:28:50.833 : en:Chapter 04
00:37:22.625 : en:Chapter 05
00:43:27.500 : en:Chapter 06
00:49:20.791 : en:Chapter 07
00:55:56.708 : en:Chapter 08
01:04:35.125 : en:Chapter 09
01:15:43.708 : en:Chapter 10
01:22:43.625 : en:Chapter 11
01:30:54.666 : en:Chapter 12
Скриншоты
 

Вложения

  • 180,1 KB Просмотры: 0
    Личеров 0
    Сидеров 0
    Файлов 1
    Объем 17,9 GB

Привет!

Мы группа людей которые решили помочь другим в решении их проблем, а так же пользователям с поиском самых свежих и качественных инфопродуктов. За 4 с небольшим месяца мы создали этот форум на который заходят ежедневно тысячи человек и посещаемость постоянно растёт. Мы создали панель лицензирования для защиты PHP скриптов от воровства и SEO панель для мониторинга наших сайтов и выбора верной стратегии их развития. Мы надеемся что то что мы создали пригодится Вам и возможно Вы поможете нам развиваться и совершенствоваться вместе с Вами.

Статистика форума

Темы
404.590
Сообщения
461.469
Пользователи
80.290
Новый пользователь
khlkkk

Приложения форума для iOS и Android


У ркн там нет власти ;)
Приватные разговоры
Помощь Пользователи
    Вы не присоединились ни к одной комнате.