За последнюю неделю опубликовано 122 новых материалов.
Инструкция новичку Путеводитель по форуму Прокси для Telegram Показать подсказки , это бомба!

Скачать Деревенские Крокодилы / Крокодилы из пригорода / Die Vorstadtkrokodile (1977) DVDRip | L1 бесплатно через торрент

  • Поучаствуй (в качестве покупателя) в любых пяти совместных покупках (кроме завершённых и "Моментальных") и получи группу "Новичок" навсегда -> ссылка на раздел
  • Получай до 480 рублей за каждого приглашенного пользователя!
    представляем Вам очередное расширение партнерской программы, подробности описаны тут -> ссылка
  • 90% материалов доступно к скачиванию после простой регистрации!
    Если же ты хочешь скачивать материалы без требования оставлять отзывы то получи группу "Новичок", 10 способов повышения описаны тут -> ссылка
  • К сожалению количество битых ссылок растет и мы уже не можем их оперативно восстанавливать поэтому просим помощи у каждого нашего пользователя.
    С сегодняшнего дня, за каждую восстановленную ссылку мы заплатим Вам.
    Подробнее тут -> ссылка
  • Перенесем твои заслуги с другого ресурса!
    Мы понимаем как сложно прокачивать аккаунты на форумах, вроде раскачал аккаунт, а тут появляется ресурс в 100 раз круче но тоже с системой прокачки и снова качать аккаунт...
    Предлагаем вам перенести Ваши заслуги на другом подобном ресурсе к нам.
    Подробности описаны тут -> ссылка
  • Вы можете получать по 2.5% с каждой покупки и продажи на маркете! Подробности в теме Партнёрская программа
Если Вы не хотите скачивать, Вы всегда можетепосмотретьонлайн, просто нажмите кнопку ниже :

Открыть плеер

Torrent_Bot

Торрент-Бот
Бот форума
4 Окт 2016
124
96
20



Информация о фильме
Название: Деревенские Крокодилы / Крокодилы из пригорода
Оригинальное название: Die Vorstadtkrokodile
Год выхода: 1977
Жанр: приключения, семейный
Режиссер: Вольфганг Беккер
В ролях: Вольфганг Зилинг, Томас Бонен, Томас Мюллер, Джозеф Сигер, Хольгер Шнайдер, Хайнц Бэтер, Сандра Мюллер, Хайнер Бикер, Ральф Бучольц, Манфред Рудольф, Биргит Команнс, Мартин Земмельрогге, Томас Науманн

О фильме:
У мальчика Курта беда – он не может ходить. А рядом, в предместье небольшого Вестфальского городка, живёт и здравствует компания «Крокодилов». Стать в ней своим непросто – надо как минимум забраться на крышу заброшенной фабрики… Но вот какая штука: с крыши так просто соскользнуть, а внизу целых три этажа! Благодаря Курту, вовремя заметившему случившееся и позвонившему «911», незадачливый кандидат в «Крокодилы» остаётся жив и невредим и в качестве благодарности предлагает своему спасителю тоже вступить в весёлую компанию. Но, оказывается, не всё так просто и хорошо…



Производство: ФРГ / Westdeutscher Rundfunk (WDR)
Продолжительность: 01:26:21
Перевод: любительский одноголосый (Алексей Воленко)

Файл
Качество: DVDRip
Формат: AVI
Видео: XviD, 720x548 (4:3), 25.000 fps, 1908 kbps, 0.193 bit/pixel
Аудио #1: русский, AC3 2.0, 48 kHz, 192 kbps
Аудио #2: немецкий, AC3 2.0, 48 kHz, 192 kbps
Субтитры: русские (Михаил Васильев и serega), английские внешние, SRT

MediaInfo
Общее
Полное имя : Die.Vorstadtkrokodile.1977.DVDRip.avi
Формат : AVI
Формат/Информация : Audio Video Interleave
Профиль формата : OpenDML
Размер файла : 1,39 Гбайт
Продолжительность : 1 ч. 26 м.
Общий поток : 2311 Кбит/сек
Программа кодирования : Lavf58.20.100

Видео
Идентификатор : 0
Формат : MPEG-4 Visual
Профиль формата : Advanced Simple@L5
Настройки формата : BVOP1
Параметр BVOP формата : 1
Параметр QPel формата : Нет
Параметр GMC формата : Без точки перехода
Параметр матрицы формата : Default (H.263)
Идентификатор кодека : XVID
Идентификатор кодека/Подсказка : XviD
Продолжительность : 1 ч. 26 м.
Битрейт : 1908 Кбит/сек
Ширина : 720 пикселей
Высота : 548 пикселей
Соотношение сторон : 4:3
Частота кадров : 25,000 кадров/сек
Цветовое пространство : YUV
Субдискретизация насыщенности : 4:2:0
Битовая глубина : 8 бит
Тип развёртки : Прогрессивная
Метод сжатия : С потерями
Бит/(Пиксели*Кадры) : 0.193
Размер потока : 1,15 Гбайт (83%)
Библиотека кодирования : XviD 67

Аудио #1
Идентификатор : 1
Формат : AC-3
Формат/Информация : Audio Coding 3
Коммерческое название : Dolby Digital
Идентификатор кодека : 2000
Продолжительность : 1 ч. 26 м.
Вид битрейта : Постоянный
Битрейт : 192 Кбит/сек
Каналы : 2 канала
ChannelLayout : L R
Частота : 48,0 КГц
Частота кадров : 31,250 кадров/сек (1536 SPF)
Битовая глубина : 16 бит
Метод сжатия : С потерями
Размер потока : 119 Мбайт (8%)
Выравнивание : Соединение по промежуткам
Продолжительность промежутка : 32 мс. (0,80 видеокадр)
ServiceKind : Complete Main

Аудио #2
Идентификатор : 2
Формат : AC-3
Формат/Информация : Audio Coding 3
Коммерческое название : Dolby Digital
Идентификатор кодека : 2000
Продолжительность : 1 ч. 26 м.
Вид битрейта : Постоянный
Битрейт : 192 Кбит/сек
Каналы : 2 канала
ChannelLayout : L R
Частота : 48,0 КГц
Частота кадров : 31,250 кадров/сек (1536 SPF)
Битовая глубина : 16 бит
Метод сжатия : С потерями
Размер потока : 119 Мбайт (8%)
Выравнивание : Соединение по промежуткам
Продолжительность промежутка : 32 мс. (0,80 видеокадр)
ServiceKind : Complete Main
Скриншоты
Релиз от:
 

Вложения

  • 15,1 KB Просмотры: 0
    Личеров 0
    Сидеров 0
    Файлов 3
    Объем 1,4 GB
Ваш e-mail не будет опубликован. Он потребуется для подтверждения Вашего поста.
Оформление текста Нажмите «Ввод», чтобы отправить ответ.

Привет!

Мы группа людей которые решили помочь другим в решении их проблем, а так же пользователям с поиском самых свежих и качественных инфопродуктов. За 4 с небольшим месяца мы создали этот форум на который заходят ежедневно тысячи человек и посещаемость постоянно растёт. Мы создали панель лицензирования для защиты PHP скриптов от воровства и SEO панель для мониторинга наших сайтов и выбора верной стратегии их развития. Мы надеемся что то что мы создали пригодится Вам и возможно Вы поможете нам развиваться и совершенствоваться вместе с Вами.

Статистика форума

Темы
378.776
Сообщения
418.224
Пользователи
50.073
Новый пользователь
vlasov1701

Приложения форума для iOS и Android


У ркн там нет власти ;)
Приватные разговоры
Помощь Пользователи
    Вы не присоединились ни к одной комнате.