За последнюю неделю опубликовано 35 новых материалов.
Инструкция новичку Путеводитель по форуму Прокси для Telegram Показать подсказки , это бомба!

Скачать День дурака (2014) WEB-DLRip от ExKinoRay бесплатно через торрент

  • Поучаствуй (в качестве покупателя) в любых пяти совместных покупках (кроме завершённых и "Моментальных") и получи группу "Новичок" навсегда -> ссылка на раздел
  • Получай до 480 рублей за каждого приглашенного пользователя!
    представляем Вам очередное расширение партнерской программы, подробности описаны тут -> ссылка
  • 90% материалов доступно к скачиванию после простой регистрации!
    Если же ты хочешь скачивать материалы без требования оставлять отзывы то получи группу "Новичок", 10 способов повышения описаны тут -> ссылка
  • К сожалению количество битых ссылок растет и мы уже не можем их оперативно восстанавливать поэтому просим помощи у каждого нашего пользователя.
    С сегодняшнего дня, за каждую восстановленную ссылку мы заплатим Вам.
    Подробнее тут -> ссылка
  • Перенесем твои заслуги с другого ресурса!
    Мы понимаем как сложно прокачивать аккаунты на форумах, вроде раскачал аккаунт, а тут появляется ресурс в 100 раз круче но тоже с системой прокачки и снова качать аккаунт...
    Предлагаем вам перенести Ваши заслуги на другом подобном ресурсе к нам.
    Подробности описаны тут -> ссылка
  • Вы можете получать по 2.5% с каждой покупки и продажи на маркете! Подробности в теме Партнёрская программа
Если Вы не хотите скачивать, Вы всегда можетепосмотретьонлайн, просто нажмите кнопку ниже :

Открыть плеер

Torrent_Bot

Торрент-Бот
Бот форума
4 Окт 2016
90
168
20
Информация о фильме
Название: День дурака
Год выхода: 2014
Жанр:комедия, приключения
Режиссер: Александр Баранов
В ролях: Алексей Веселкин, Александр Лыков, Светлана Чуйкина, Сергей Беляев, Сергей Удовик, Александр Воробьев, Игорь Кистол, Дмитрий Белоцерковский, Антон Васильев, Антонина Дивина

О фильме: Ванька работает швейцаром в гостинице. Он ненавидит ее обеспеченных постояльцев, но при этом мечтает пожить их роскошной жизнью. А пока вынужден жить в машине, купленной в кредит, так как из съемной квартиры его выгнали за неуплату. В этой и без того непростой ситуации на голову парня сваливается коллектор Сергей Сергеевич, который твердо решил выбить из Ваньки долг. Чтобы хоть как-то отсрочить расправу, Ванька выдает себя за сына богатого фермера, который с легкостью погасит кредит. Но по дороге на ферму попутчики поневоле попадают в аварию, которая оборачивается для Ваньки неожиданным спасением. Нечистый на руку мэр провинциального городка и вороватые сотрудники его администрации принимают московских гостей за представителей Следственного комитета. Вчерашнего швейцара ждет королевский прием и взятка в виде руки и сердца мэрской дочки… или скандальное разоблачение.



Выпущено: Россия / Базелевс Продакшн, Аврора Фильм
Продолжительность: 01:30:15
Перевод: не требуется

Файл
Качество: WEBDLRip
Формат: AVI
Видео кодек: XviD
Аудио кодек: MP3
Видео: 640x272 (2,35:1), 24,000 fps, XviD 73 ~1030 kbps avg, 0.246 bit/pixel
Аудио: 48,0 kHz, Audio Coding 3, Front: L R, 128 Kbps

Семпл

MI:
Общее
Полное имя : D:ВидеоDen.duraka.2014. WEB-DLRip by Vovan366(ExKinoRay).avi
Формат : AVI
Формат/Информация : Audio Video Interleave
Размер файла : 751 Мбайт
Продолжительность : 1 ч. 30 м.
Режим общего битрейта : Переменный
Общий поток : 1163 Кбит/сек
Программа кодирования : VirtualDubMod 1.5.10.3 | www.virtualdub-fr.org || (build 2550/release)
Библиотека кодирования : VirtualDubMod build 2550/release

Видео
Идентификатор : 0
Формат : MPEG-4 Visual
Профиль формата : Advanced [email protected]
Параметр BVOP формата : 2
Параметр QPel формата : Нет
Параметр GMC формата : Без точки перехода
Параметр матрицы формата : Выборочная
Идентификатор кодека : XVID
Идентификатор кодека/Подсказка : XviD
Продолжительность : 1 ч. 30 м.
Битрейт : 1030 Кбит/сек
Ширина : 640 пикселей
Высота : 272 пикселя
Соотношение сторон : 2,35:1
Частота кадров : 24,000 кадра/сек
Цветовое пространство : YUV
Субдискретизация насыщенности : 4:2:0
Битовая глубина : 8 бит
Тип развёртки : Прогрессивная
Метод сжатия : С потерями
Бит/(Пиксели*Кадры) : 0.246
Размер потока : 665 Мбайт (89%)
Библиотека кодирования : XviD 73

Аудио
Идентификатор : 1
Формат : MPEG Audio
Версия формата : Version 1
Профиль формата : Layer 3
Режим : Joint stereo
Расширение режима : MS Stereo
Идентификатор кодека : 55
Идентификатор кодека/Подсказка : MP3
Продолжительность : 1 ч. 30 м.
Вид битрейта : Переменный
Битрейт : 121 Кбит/сек
Номинальный битрейт : 128 Кбит/сек
Каналы : 2 канала
Частота : 48,0 КГц
Метод сжатия : С потерями
Размер потока : 77,8 Мбайт (10%)
Выравнивание : Соединение по промежуткам
Продолжительность промежутка : 24 мс. (0,58 видеокадр)
Время предзагрузки промежутка : 152 мс.
Библиотека кодирования : LAME3.99r
Настройки программы : -m j -V 4 -q 2 -lowpass 17 --abr 128
Скриншоты



Релиз от:
Rip by:Vovan366
 

Вложения

  • 15,8 KB Просмотры: 0
    Личеров 0
    Сидеров 0
    Файлов 1
    Объем 750,7 MB

Привет!

Мы группа людей которые решили помочь другим в решении их проблем, а так же пользователям с поиском самых свежих и качественных инфопродуктов. За 4 с небольшим месяца мы создали этот форум на который заходят ежедневно тысячи человек и посещаемость постоянно растёт. Мы создали панель лицензирования для защиты PHP скриптов от воровства и SEO панель для мониторинга наших сайтов и выбора верной стратегии их развития. Мы надеемся что то что мы создали пригодится Вам и возможно Вы поможете нам развиваться и совершенствоваться вместе с Вами.

Статистика форума

Темы
410.952
Сообщения
469.384
Пользователи
88.420
Новый пользователь
Grimoar

Приложения форума для iOS и Android


У ркн там нет власти ;)
Приватные разговоры
Помощь Пользователи
    Вы не присоединились ни к одной комнате.