За последнюю неделю опубликовано 102 новых материалов.
Инструкция новичку Путеводитель по форуму Прокси для Telegram Показать подсказки , это бомба!

Скачать Деловые люди (1962) HDDVDRip 720p от ExKinoRay бесплатно через торрент

  • Поучаствуй (в качестве покупателя) в любых пяти совместных покупках (кроме завершённых и "Моментальных") и получи группу "Новичок" навсегда -> ссылка на раздел
  • Получай до 480 рублей за каждого приглашенного пользователя!
    представляем Вам очередное расширение партнерской программы, подробности описаны тут -> ссылка
  • 90% материалов доступно к скачиванию после простой регистрации!
    Если же ты хочешь скачивать материалы без требования оставлять отзывы то получи группу "Новичок", 10 способов повышения описаны тут -> ссылка
  • К сожалению количество битых ссылок растет и мы уже не можем их оперативно восстанавливать поэтому просим помощи у каждого нашего пользователя.
    С сегодняшнего дня, за каждую восстановленную ссылку мы заплатим Вам.
    Подробнее тут -> ссылка
  • Перенесем твои заслуги с другого ресурса!
    Мы понимаем как сложно прокачивать аккаунты на форумах, вроде раскачал аккаунт, а тут появляется ресурс в 100 раз круче но тоже с системой прокачки и снова качать аккаунт...
    Предлагаем вам перенести Ваши заслуги на другом подобном ресурсе к нам.
    Подробности описаны тут -> ссылка
  • Вы можете получать по 2.5% с каждой покупки и продажи на маркете! Подробности в теме Партнёрская программа
Если Вы не хотите скачивать, Вы всегда можетепосмотретьонлайн, просто нажмите кнопку ниже :

Открыть плеер

Torrent_Bot

Торрент-Бот
Бот форума
4 Окт 2016
102
152
20
Информация о фильме
Название: Деловые люди
Год выхода: 1962
Жанр: Комедия, экранизация
Режиссер: Леонид Гайдай
В ролях: Ростислав Плятт, Юрий Никулин, Георгий Вицин, Алексей Смирнов (I), Сергей Тихонов, Владлен Паулус, Александр Шворин, Георгий Милляр, Виктор Громов, Владимир Пицек, Виктор Уральский

О фильме:
Фильмы поставлены по новеллам знаменитого американского писателя О.Генри: "Дороги, которые мы выбираем", "Родственные души", "Вождь краснокожих". На долю последней новеллы выпала, пожалуй, наибольшая популярность - столь уморительны оказались злоключения двух незадачливых похитителей юного сорванца...

Страна: СССР, киностудия Мосфильм
Продолжительность: 01:19:51
Перевод: не требуется

Файл
Кодек: x264
Качество: HDDVDRip 720p - Custom
Видео: MPEG-4 AVC, 5005 Кбит/с, 960x720
Звук: AC3, 6 ch, 448 Кбит/с
Субтитры: Русские

Скриншоты
Медиа-Инфо
raw [info]: 960x720p 1:1 @ 25/1 fps (cfr)
x264 [info]: using SAR=1/1
x264 [info]: using cpu capabilities: MMX2 SSE2Fast SSSE3 SSE4.2 AVX
x264 [info]: profile High, level 4.1
x264 [info]: frame I:782 Avg QP:18.01 size:135496
x264 [info]: frame P:39238 Avg QP:21.01 size: 49663
x264 [info]: frame B:79752 Avg QP:22.27 size: 11822
============================================================================================================
Общее
Уникальный идентификатор : 198573332543443833320248639694460880626 (0x9563D52DCEBDEF5D909D21D9700706F2)
Полное имя : D:Деловые люди_1962-HDDVDRip-AVC.mkv
Формат : Matroska
Версия формата : Version 2
Размер файла : 3,04 Гбайт
Продолжительность : 1 ч. 19 м.
Общий поток : 5454 Кбит/сек
Дата кодирования : UTC 2016-02-19 21:34:25
Программа кодирования : mkvmerge v5.8.0 ('No Sleep / Pillow') built on Sep 2 2012 15:37:04
Библиотека кодирования : libebml v1.2.3 + libmatroska v1.3.0

Видео
Идентификатор : 1
Формат : AVC
Формат/Информация : Advanced Video Codec
Профиль формата : High@L4.1
Параметр CABAC формата : Да
Параметр ReFrames формата : 12 кадров
Идентификатор кодека : V_MPEG4/ISO/AVC
Продолжительность : 1 ч. 19 м.
Битрейт : 5005 Кбит/сек
Ширина : 960 пикселей
Высота : 720 пикселей
Соотношение сторон : 4:3
Режим частоты кадров : Постоянный
Частота кадров : 25,000 кадров/сек
Цветовое пространство : YUV
Субдискретизация насыщенности : 4:2:0
Битовая глубина : 8 бит
Тип развёртки : Прогрессивная
Бит/(Пиксели*Кадры) : 0.290
Размер потока : 2,73 Гбайт (90%)
Библиотека кодирования : x264 core 148 r2638 7599210
Настройки программы : cabac=1 / ref=12 / deblock=1:-2:-2 / analyse=0x3:0x133 / me=umh / subme=10 / psy=1 / psy_rd=0.85:0.10 / mixed_ref=1 / me_range=32 / chroma_me=1 / trellis=2 / 8x8dct=1 / cqm=0 / deadzone=21,11 / fast_pskip=0 / chroma_qp_offset=-3 / threads=12 / lookahead_threads=2 / sliced_threads=0 / nr=0 / decimate=0 / interlaced=0 / bluray_compat=0 / constrained_intra=0 / bframes=7 / b_pyramid=2 / b_adapt=2 / b_bias=0 / direct=3 / weightb=1 / open_gop=0 / weightp=2 / keyint=250 / keyint_min=25 / scenecut=40 / intra_refresh=0 / rc=2pass / mbtree=0 / bitrate=5005 / ratetol=1.0 / qcomp=0.63 / qpmin=0 / qpmax=39 / qpstep=4 / cplxblur=20.0 / qblur=0.5 / ip_ratio=1.40 / pb_ratio=1.30 / aq=1:0.80
Язык : English
Default : Да
Forced : Нет
Основные цвета : BT.709
Характеристики трансфера : BT.709
Коэффициенты матрицы : BT.709

Аудио
Идентификатор : 2
Формат : AC-3
Формат/Информация : Audio Coding 3
Расширение режима : CM (complete main)
Параметр Endianness формата : Big
Идентификатор кодека : A_AC3
Продолжительность : 1 ч. 19 м.
Вид битрейта : Постоянный
Битрейт : 448 Кбит/сек
Каналы : 6 каналов
Расположение каналов : Front: L C R, Side: L R, LFE
Частота : 48,0 КГц
Битовая глубина : 16 бит
Метод сжатия : С потерями
Размер потока : 256 Мбайт (8%)
Язык : Russian
Default : Да
Forced : Нет

Текст
Идентификатор : 3
Формат : UTF-8
Идентификатор кодека : S_TEXT/UTF8
Идентификатор кодека/Информация : UTF-8 Plain Text
Язык : Russian
Default : Нет
Forced : Нет

Меню
00:00:00.000 : :00:00:00.000
00:04:20.640 : :00:04:20.640
00:08:19.720 : :00:08:19.720
00:10:32.840 : :00:10:32.840
00:15:18.040 : :00:15:18.040
00:17:52.520 : :00:17:52.520
00:22:22.080 : :00:22:22.080
00:27:00.120 : :00:27:00.120
00:30:15.600 : :00:30:15.600
00:34:41.480 : :00:34:41.480
00:39:47.800 : :00:39:47.800
00:52:30.840 : :00:52:30.840
01:03:11.280 : :01:03:11.280
01:05:45.240 : :01:05:45.240
01:13:34.160 : :01:13:34.160
01:17:45.560 : :01:17:45.560
Релиз от:
Автор релиза:
 

Вложения

  • 16,1 KB Просмотры: 0
    Личеров 0
    Сидеров 0
    Файлов 1
    Объем 3 GB

Привет!

Мы группа людей которые решили помочь другим в решении их проблем, а так же пользователям с поиском самых свежих и качественных инфопродуктов. За 4 с небольшим месяца мы создали этот форум на который заходят ежедневно тысячи человек и посещаемость постоянно растёт. Мы создали панель лицензирования для защиты PHP скриптов от воровства и SEO панель для мониторинга наших сайтов и выбора верной стратегии их развития. Мы надеемся что то что мы создали пригодится Вам и возможно Вы поможете нам развиваться и совершенствоваться вместе с Вами.

Статистика форума

Темы
404.573
Сообщения
461.396
Пользователи
80.197
Новый пользователь
Артур8290

Приложения форума для iOS и Android


У ркн там нет власти ;)
Приватные разговоры
Помощь Пользователи
    Вы не присоединились ни к одной комнате.