За последнюю неделю опубликовано 73 новых материалов.
Инструкция новичку Путеводитель по форуму Прокси для Telegram Показать подсказки , это бомба!

Скачать Декстер / Dexter [S08] (2013) BDRip-AVC | LostFilm бесплатно через торрент

  • Поучаствуй (в качестве покупателя) в любых пяти совместных покупках (кроме завершённых и "Моментальных") и получи группу "Новичок" навсегда -> ссылка на раздел
  • Получай до 480 рублей за каждого приглашенного пользователя!
    представляем Вам очередное расширение партнерской программы, подробности описаны тут -> ссылка
  • 90% материалов доступно к скачиванию после простой регистрации!
    Если же ты хочешь скачивать материалы без требования оставлять отзывы то получи группу "Новичок", 10 способов повышения описаны тут -> ссылка
  • К сожалению количество битых ссылок растет и мы уже не можем их оперативно восстанавливать поэтому просим помощи у каждого нашего пользователя.
    С сегодняшнего дня, за каждую восстановленную ссылку мы заплатим Вам.
    Подробнее тут -> ссылка
  • Перенесем твои заслуги с другого ресурса!
    Мы понимаем как сложно прокачивать аккаунты на форумах, вроде раскачал аккаунт, а тут появляется ресурс в 100 раз круче но тоже с системой прокачки и снова качать аккаунт...
    Предлагаем вам перенести Ваши заслуги на другом подобном ресурсе к нам.
    Подробности описаны тут -> ссылка
  • Вы можете получать по 2.5% с каждой покупки и продажи на маркете! Подробности в теме Партнёрская программа
Если Вы не хотите скачивать, Вы всегда можетепосмотретьонлайн, просто нажмите кнопку ниже :

Открыть плеер

Torrent_Bot

Торрент-Бот
Бот форума
4 Окт 2016
122
116
20
Информация о фильме
Название: Декстер / Правосудие Декстера
Оригинальное название: Dexter
Год выхода: 2013
Жанр: Триллер, драма, криминал, детектив
Режиссер: Джон Дал, Роберт Либерман, Ник Гомез
В ролях: Майкл С. Холл, Дженнифер Карпентер, Лорен Велес, Дэвид Зайас, Джеймс Ремар, К.С. Ли, Десмонд Харрингтон, Джули Бенц, Кристина Робинсон, Престон Бэйли, Джеффри Пирсон, Эрик Кинг, Айми Гарсиа, Люк Эндрю Крунтчев, Ивэн Джордж Крунтчев, Дэвид Рэмси, Кит Кэрредин, Джимми Смитс, Колин Хэнкс, Рэй Стивенсон, Джон Литгоу

О фильме:
Американский телесериал канала Showtime, основанный на романе Джеффри Линдсея «Дремлющий демон Декстера» (англ. Darkly Dreaming Dexter, дословно «Мрачно мечтающий Декстер») и адаптированный для телевидения лауреатом Эмми сценаристом Джеймсом Маносом мл., который написал сценарий для пилотного эпизода. События сериала рассказывают о Декстере Моргане (Майкл Холл), вымышленном серийном убийце, работающем судебным экспертом по брызгам крови в полиции Майами. Сериал неоднократно номинировался на различные премии, такие как «Эмми», «IGN», «Satellite Awards» и «Сатурн». Также сериал подвергался критике со стороны родительских организаций (таких как «Parents Television Council»), как излишне жестокий и аморальный


8c0c437485ad2a59585812a648152b3b.gif24d10a8210531de47afa3b789f534295.gif

Страна: США
Студия: Showtime Networks Inc., John Goldwyn Productions, Devilina Productions, Colleton Company
Продолжительность: 12 x ~ 00:53:00
Перевод: Профессиональный многоголосый

Файл
Контейнер: MKV
Кодек: MPEG-4 AVC / H.264
Качество: BDRip
Видео: 720x408, ~ 1400 Кбит/с, 23.976 Кадр/с
Звук:
Русский (AC3, 6 ch, 384 Кбит/с) | LostFilm
Английский (AC3, 6 ch, 448 Кбит/с)
Субтитры: Русские. английские



Список серий
01. A Beautiful Day / Прекрасный день
02. Every Silver Lining / Нет худа без добра
03. Что гложет Декстера Моргана? / What's Eating Dexter Morgan?
04. Рубцовая ткань / Scar Tissue
05. Первый негритёнок / This Little Piggy
06. Немного размышлений / A Little Reflection
07. Дресс-код / Dress Code
08. Мы уже там? / Are We There Yet?
09. Создай свой собственный вид музыки / Make Your Own Kind of Music
10. Прощай Майами / Goodbye Miami
11. Обезьяна в коробке / Monkey In a Box
12. Помнишь монстров? / Remember the Monsters?
Скриншоты
9b585fb2e0b23ba69ff979ae4167e71f.jpg79341751dd0654420e4c4e65966eedd4.jpg
c352f19d02d9ddbc8882a1a16a0a8aef.jpgfa045a111eaf8257dd9ee58686934aaf.jpg
91f8a3074aa14b803826d2a64b3dfd3c.jpg45aca0f2ea473065c694c3e83913fc0a.jpg
MediaInfo
General
Unique ID : 239540733391692585547154029026609290020 (0xB435DDFC7DA5C371ADE043BC9A715B24)
Complete name : G:MKVDexter.S08.BDRip-AVCDexter S08E01 BDRip-AVC.mkv
Format : Matroska
Format version : Version 2
File size : 849 MiB
Duration : 52mn 59s
Overall bit rate : 2 239 Kbps
Movie name : Dexter.s8e01.A.Beautiful.Day (BDRip-AVC)
Encoded date : UTC 2014-03-03 21:30:49
Writing application : mkvmerge v6.8.0 ('Theme for Great Cities') 32bit built on Mar 2 2014 21:27:07
Writing library : libebml v1.3.0 + libmatroska v1.4.1
Attachment : Yes

Video
ID : 1
Format : AVC
Format/Info : Advanced Video Codec
Format profile : [email protected]
Format settings, CABAC : Yes
Format settings, ReFrames : 9 frames
Codec ID : V_MPEG4/ISO/AVC
Duration : 52mn 59s
Bit rate : 1 405 Kbps
Width : 720 pixels
Height : 408 pixels
Display aspect ratio : 16:9
Frame rate mode : Constant
Frame rate : 23.976 fps
Color space : YUV
Chroma subsampling : 4:2:0
Bit depth : 8 bits
Scan type : Progressive
Bits/(Pixel*Frame) : 0.199
Stream size : 516 MiB (61%)
Title : Dexter.s8e01.A.Beautiful.Day (BDRip-AVC) [email protected]
Writing library : x264 core 140 r2377 1ca7bb9
Encoding settings : cabac=1 / ref=9 / deblock=1:-3:-3 / analyse=0x3:0x133 / me=umh / subme=11 / psy=1 / psy_rd=1.05:0.05 / mixed_ref=1 / me_range=32 / chroma_me=1 / trellis=2 / 8x8dct=1 / cqm=0 / deadzone=21,11 / fast_pskip=0 / chroma_qp_offset=-3 / threads=6 / lookahead_threads=1 / sliced_threads=0 / nr=0 / decimate=0 / interlaced=0 / bluray_compat=0 / constrained_intra=0 / bframes=8 / b_pyramid=2 / b_adapt=2 / b_bias=0 / direct=3 / weightb=1 / open_gop=0 / weightp=2 / keyint=240 / keyint_min=23 / scenecut=40 / intra_refresh=0 / rc=2pass / mbtree=0 / bitrate=1405 / ratetol=1.0 / qcomp=0.65 / qpmin=0 / qpmax=69 / qpstep=4 / cplxblur=20.0 / qblur=0.5 / ip_ratio=1.40 / pb_ratio=1.30 / aq=1:1.00
Language : English
Default : Yes
Forced : No

Audio #1
ID : 2
Format : AC-3
Format/Info : Audio Coding 3
Mode extension : CM (complete main)
Format settings, Endianness : Big
Codec ID : A_AC3
Duration : 52mn 59s
Bit rate mode : Constant
Bit rate : 384 Kbps
Channel(s) : 6 channels
Channel positions : Front: L C R, Side: L R, LFE
Sampling rate : 48.0 KHz
Bit depth : 16 bits
Compression mode : Lossy
Stream size : 146 MiB (17%)
Title : LostFilm AC3 5.1 384 Kbps
Language : Russian
Default : Yes
Forced : No

Audio #2
ID : 3
Format : AC-3
Format/Info : Audio Coding 3
Mode extension : CM (complete main)
Format settings, Endianness : Big
Codec ID : A_AC3
Duration : 52mn 59s
Bit rate mode : Constant
Bit rate : 448 Kbps
Channel(s) : 6 channels
Channel positions : Front: L C R, Side: L R, LFE
Sampling rate : 48.0 KHz
Bit depth : 16 bits
Compression mode : Lossy
Stream size : 170 MiB (20%)
Title : Original AC3 5.1 448 Kbps
Language : English
Default : No
Forced : No

Text #1
ID : 4
Format : UTF-8
Codec ID : S_TEXT/UTF8
Codec ID/Info : UTF-8 Plain Text
Title : N-Team
Language : Russian
Default : No
Forced : No

Text #2
ID : 5
Format : UTF-8
Codec ID : S_TEXT/UTF8
Codec ID/Info : UTF-8 Plain Text
Title : Артём Кущак
Language : Russian
Default : No
Forced : No

Text #3
ID : 6
Format : UTF-8
Codec ID : S_TEXT/UTF8
Codec ID/Info : UTF-8 Plain Text
Title : Ирина Олонова
Language : Russian
Default : No
Forced : No

Text #4
ID : 7
Format : UTF-8
Codec ID : S_TEXT/UTF8
Codec ID/Info : UTF-8 Plain Text
Language : English
Default : No
Forced : No

Menu
00:00:00.000 : en:00:00:00.000
00:03:21.201 : en:00:03:21.201
00:05:07.307 : en:00:05:07.307
00:12:26.245 : en:00:12:26.245
00:19:55.861 : en:00:19:55.861
00:31:13.205 : en:00:31:13.205
00:40:55.328 : en:00:40:55.328
00:52:03.662 : en:00:52:03.662
Релиз
[email protected]

Pабота со звуком AMDG1000, koharubiyori
Субтитры: Английские, Русские (N-Team / Артём Кущак / Ирина Олонова)

Данный релиз создан [email protected] в качестве и как дополнение к его же релизу (представленному на Руторе в этой раздаче) ввиду того, что 8 сезон сериала не был озвучен студией NovaFilm

Доп. информация: исправил параметры командной строки контейнера MKV всех серий для устранения проблем ускоренной перемотки на "железных" плеерах
 

Вложения

  • 51,4 KB Просмотры: 0
    Личеров 0
    Сидеров 0
    Файлов 12
    Объем 9,9 GB

Привет!

Мы группа людей которые решили помочь другим в решении их проблем, а так же пользователям с поиском самых свежих и качественных инфопродуктов. За 4 с небольшим месяца мы создали этот форум на который заходят ежедневно тысячи человек и посещаемость постоянно растёт. Мы создали панель лицензирования для защиты PHP скриптов от воровства и SEO панель для мониторинга наших сайтов и выбора верной стратегии их развития. Мы надеемся что то что мы создали пригодится Вам и возможно Вы поможете нам развиваться и совершенствоваться вместе с Вами.

Статистика форума

Темы
385.185
Сообщения
430.720
Пользователи
63.435
Новый пользователь
Macks

Приложения форума для iOS и Android


У ркн там нет власти ;)
Приватные разговоры
Помощь Пользователи
    Вы не присоединились ни к одной комнате.