За последнюю неделю опубликовано 33 новых материалов.
Инструкция новичку Путеводитель по форуму Прокси для Telegram Показать подсказки , это бомба!

Скачать Декстер / Dexter [S05] (2010) WEB-DL 1080p | Netflix бесплатно через торрент

  • Поучаствуй (в качестве покупателя) в любых пяти совместных покупках (кроме завершённых и "Моментальных") и получи группу "Новичок" навсегда -> ссылка на раздел
  • Получай до 480 рублей за каждого приглашенного пользователя!
    представляем Вам очередное расширение партнерской программы, подробности описаны тут -> ссылка
  • 90% материалов доступно к скачиванию после простой регистрации!
    Если же ты хочешь скачивать материалы без требования оставлять отзывы то получи группу "Новичок", 10 способов повышения описаны тут -> ссылка
  • К сожалению количество битых ссылок растет и мы уже не можем их оперативно восстанавливать поэтому просим помощи у каждого нашего пользователя.
    С сегодняшнего дня, за каждую восстановленную ссылку мы заплатим Вам.
    Подробнее тут -> ссылка
  • Перенесем твои заслуги с другого ресурса!
    Мы понимаем как сложно прокачивать аккаунты на форумах, вроде раскачал аккаунт, а тут появляется ресурс в 100 раз круче но тоже с системой прокачки и снова качать аккаунт...
    Предлагаем вам перенести Ваши заслуги на другом подобном ресурсе к нам.
    Подробности описаны тут -> ссылка
  • Вы можете получать по 2.5% с каждой покупки и продажи на маркете! Подробности в теме Партнёрская программа
Если Вы не хотите скачивать, Вы всегда можетепосмотретьонлайн, просто нажмите кнопку ниже :

Открыть плеер

Torrent_Bot

Торрент-Бот
Бот форума
4 Окт 2016
79
194
20



Информация о фильме
Название: Декстер
Оригинальное название: Dexter
Год выхода: 2010
Жанр: триллер, драма, криминал, детектив
Режиссер: Джон Дал, Стив Шилл, Кит Гордон
В ролях: Майкл С. Холл, Дженнифер Карпентер, Дэвид Зайас, Джеймс Римар, К.С. Ли, Лорен Луна Велес, Десмонд Хэррингтон, Джули Бенц, Кристина Робинсон, Джеффри Пирсон

О фильме:
«Де́кстер», «Правосудие Декстера» (англ. Dexter) — американский телесериал канала Showtime, основанный на романе Джеффри Линдсея «Дремлющий демон Декстера» (англ. Darkly Dreaming Dexter, дословно «Мрачно грезящий Декстер») и адаптированный для телевидения лауреатом премии «Эмми», сценаристом Джеймсом Маносом-мл., который написал сценарий для пилотного эпизода. События сериала рассказывают о Декстере Моргане (Майкл Холл), вымышленном серийном убийце, работающим судебным экспертом по брызгам крови в полиции Майами. Сериал неоднократно номинировался на различные премии, такие как «Эмми», IGN, Satellite Award и «Сатурн». Также сериал подвергался критике со стороны родительских организаций (таких как Parents Television Council) как излишне жестокий и аморальный.

В возрасте трёх лет Декстер Морган (Майкл С. Холл), ставший свидетелем кровавой расправы над своей матерью, был усыновлён выдающимся полицейским Майами Гарри Морганом (Джеймс Ремар), который, вовремя распознав социопатические наклонности Декстера, научил его направлять растущую жажду убийства в полезное русло — убивать только тех, кто этого заслужил: преступников, избежавших правосудия из-за лазейки в законах или нехватки улик.
Декстер работает в полицейском департаменте Майами экспертом по анализу брызг крови. В соответствии с инструкциями Гарри, Декстер искусно имитирует человеческие эмоции, чтобы не выделяться среди других людей. На протяжении сериала во флэшбэках показывается, как Гарри учит Декстера искусству выглядеть нормальным, и тот неукоснительно следует этим инструкциям, называя их «Кодексом Гарри». В соответствии с Кодексом, большинство жертв Декстера являются убийцами (но были и невинные жертвы, не считая косвенно пострадавших от действий Декстера), и обязательным правилом Декстера является обнаружение неопровержимых доказательств их вины, прежде их «наказания».
Красной линией через весь сюжет сериала проходят взаимоотношения между Декстером и Деброй (его сестрой). Декстер говорит в пилотной серии, что если бы он любил кого-то, то это была бы его сестра.

Декстер находит девушку по имени Люмен, выжившую жертву насильника-убийцы, и они вместе охотятся за бандой высокопоставленных насильников.




Страна: США
Продолжительность: ~00:53:00 серия
Перевод: Профессиональный (многоголосый, закадровый) Netflix

Файл
Кодек: m4v
Качество: WEB-DL 1080p
Видео: 1920 x 1080 at 23.976 fps, MPEG-4 AVC, ~5000 kbps avg
Звук: Netflix - Русский - закадровый: MPEG-4 AAC LC, 2.0, ~ 160 kbps, 48000 Hz
Аудио: Английский (США): MPEG-4 AAC LC, 2.0, ~ 160 kbps, 48000 Hz / AC-3, 5.1, 384 kbps, 48000 Hz
Субтитры: Amedia - Русский: TX3G
Субтитры: Английский - SDH для глухих: TX3G
Субтитры: Английский - скрытые субтитры: CEA-608

Скриншоты

МедиаИнфо
General
Complete name : 01 My Bad (1080p HD).m4v
Format : MPEG-4
Codec ID : M4V (M4V /mp42/isom)
File size : 2.13 GiB
Duration : 54 min 26 s
Overall bit rate mode : Variable
Overall bit rate : 5 594 kb/s
Collection : Dexter
Season : 5
Album : Dexter, Season 5
Album/Sorted by : Dexter, Season 5
Album/Performer : Dexter
Part : 1
Part/Position : 1
Part/Total : 1
Track name : My Bad
Track name/Position : 1
Track name/Total : 16
Performer : Dexter
Performer/Sorted by : Dexter
Genre : Drama
ContentType : TV Show
Deion : In the aftermath of last season's chilling season finale, Rita's death has left Dexter feeling / Michael C. Hall returns for the most highly anticipated season of DEXTER yet. After one of the most explosive, jaw-dropping season finales in television history, Dexter's carefully constructed life is left in shambles. America's favorite serial killer is going to need all of his sharpest instincts and a steely determination to survive, because he now knows one thing for sure – guilt can be a killer.
Recorded date : UTC 2010-09-26 07:00:00
Encoded date : UTC 2016-09-28 08:28:49
Tagged date : UTC 2016-09-28 08:29:18
Copyright : DEXTERВ® В©Showtime Networks Inc. All rights reserved.
Cover : Yes
Rating : None
AppleStoreCatalogID : 444060308
AlbumTitleID : 257581820
PlayListID : 441967780
GenreID : 4001
Part_ID : 501
Title/Sort : My Bad
ContentRating : us-tv|TV-MA|600|
LongDeion : In the aftermath of last season's chilling season finale, Rita's death has left Dexter feeling responsible, possibly even…guilty. Unable to deal with the trauma, Dexter makes a drastic decision that will impact everyone around him. Quinn stirs up trouble at the station when he notes that Rita's murder, which is being pinned on the Trinity Killer, doesn't fit his normal murder profile. Things get even more heated when Quinn suggests to LaGuerta that they look at the husband: Dexter Morgan. Meanwhile, Quinn offers Debra much needed support, causing her to see Quinn in a new light.
TVNetworkName : Showtime
Vendor : showtime:vendor_id:SHOWTIME_DEXTER_501
Flavour : 18:1080p
AppleStoreCountry : United States

Video
ID : 1
Format : AVC
Format/Info : Advanced Video Codec
Format profile : [email protected]
Format settings : CABAC / 4 Ref Frames
Format settings, CABAC : Yes
Format settings, RefFrames : 4 frames
Codec ID : avc1
Codec ID/Info : Advanced Video Coding
Duration : 54 min 26 s
Bit rate : 4 907 kb/s
Maximum bit rate : 13.2 Mb/s
Width : 1 920 pixels
Height : 1 080 pixels
Display aspect ratio : 16:9
Frame rate mode : Constant
Frame rate : 23.976 (23976/1000) FPS
Color space : YUV
Chroma subsampling : 4:2:0
Bit depth : 8 bits
Scan type : Progressive
Bits/(Pixel*Frame) : 0.099
Stream size : 1.87 GiB (88%)
Title : Core Media Video
Language : English
Encoded date : UTC 2016-09-28 08:28:49
Tagged date : UTC 2016-09-28 08:29:18
Color range : Limited
Color primaries : BT.709
Transfer characteristics : BT.709
Matrix coefficients : BT.709

Audio #1
ID : 2
Format : AAC
Format/Info : Advanced Audio Codec
Format profile : LC
Codec ID : mp4a-40-2
Duration : 54 min 26 s
Bit rate mode : Variable
Bit rate : 140 kb/s
Maximum bit rate : 202 kb/s
Channel(s) : 2 channels
Channel positions : Front: L R
Sampling rate : 48.0 kHz
Frame rate : 46.875 FPS (1024 SPF)
Compression mode : Lossy
Stream size : 54.4 MiB (2%)
Title : Core Media Audio
Language : Russian
Default : Yes
Alternate group : 1
Encoded date : UTC 2016-09-28 08:28:49
Tagged date : UTC 2016-09-28 08:29:18
tagc : public.translation.voice-over

Audio #2
ID : 3
Format : AAC
Format/Info : Advanced Audio Codec
Format profile : LC
Codec ID : mp4a-40-2
Duration : 54 min 26 s
Bit rate mode : Variable
Bit rate : 154 kb/s
Maximum bit rate : 279 kb/s
Channel(s) : 2 channels
Channel positions : Front: L R
Sampling rate : 48.0 kHz
Frame rate : 46.875 FPS (1024 SPF)
Compression mode : Lossy
Stream size : 59.8 MiB (3%)
Title : Core Media Audio
Language : English
Default : No
Alternate group : 1
Encoded date : UTC 2016-09-28 08:28:49
Tagged date : UTC 2016-09-28 08:29:18
Fallback From : 5

Audio #3
ID : 5
Format : AC-3
Format/Info : Audio Coding 3
Format settings, Endianness : Big
Codec ID : ac-3
Duration : 54 min 26 s
Bit rate mode : Constant
Bit rate : 384 kb/s
Maximum bit rate : 406 kb/s
Channel(s) : 6 channels
Channel positions : Front: L C R, Side: L R, LFE
Sampling rate : 48.0 kHz
Frame rate : 31.250 FPS (1536 SPF)
Bit depth : 16 bits
Compression mode : Lossy
Stream size : 150 MiB (7%)
Title : Core Media Audio
Language : English
Service kind : Complete Main
Default : No
Alternate group : 1
Encoded date : UTC 2016-09-28 08:28:49
Tagged date : UTC 2016-09-28 08:29:18
Fallback To : 3

Text #1
ID : 4-CC1
Format : EIA-608
Muxing mode : Final Cut
Codec ID : c608
Duration : 53 min 26 s
Bit rate mode : Constant
Stream size : 0.00 Byte (0%)
Title : Core Media Closed Caption
Language : English
Forced : No
Encoded date : UTC 2016-09-28 08:28:49
Tagged date : UTC 2016-09-28 08:29:18
CaptionServiceName : CC1

Text #2
ID : 6
Format : Timed Text
Muxing mode : sbtl
Codec ID : tx3g
Duration : 53 min 21 s
Bit rate mode : Variable
Bit rate : 94 b/s
Stream size : 36.7 KiB (0%)
Title : Core Media Subtitle
Language : Russian
Default : No
Forced : No
Alternate group : 2
Encoded date : UTC 2016-09-28 08:28:49
Tagged date : UTC 2016-09-28 08:29:18

Text #3
ID : 7
Format : Timed Text
Muxing mode : sbtl
Codec ID : tx3g
Duration : 53 min 26 s
Bit rate mode : Variable
Bit rate : 64 b/s
Stream size : 25.0 KiB (0%)
Title : Core Media Subtitle
Language : English
Default : No
Forced : No
Alternate group : 2
Encoded date : UTC 2016-09-28 08:28:49
Tagged date : UTC 2016-09-28 08:29:18
tagc : public.accessibility.transcribes-spoken-dialog

Релиз от: itunestv
 

Вложения

  • 244,6 KB Просмотры: 0
    Личеров 0
    Сидеров 0
    Файлов 12
    Объем 24,3 GB

Привет!

Мы группа людей которые решили помочь другим в решении их проблем, а так же пользователям с поиском самых свежих и качественных инфопродуктов. За 4 с небольшим месяца мы создали этот форум на который заходят ежедневно тысячи человек и посещаемость постоянно растёт. Мы создали панель лицензирования для защиты PHP скриптов от воровства и SEO панель для мониторинга наших сайтов и выбора верной стратегии их развития. Мы надеемся что то что мы создали пригодится Вам и возможно Вы поможете нам развиваться и совершенствоваться вместе с Вами.

Статистика форума

Темы
414.370
Сообщения
475.396
Пользователи
96.561
Новый пользователь
starushka

Приложения форума для iOS и Android


У ркн там нет власти ;)
Приватные разговоры
Помощь Пользователи
    Вы не присоединились ни к одной комнате.