За последнюю неделю опубликовано 57 новых материалов.
Инструкция новичку Путеводитель по форуму Прокси для Telegram Показать подсказки , это бомба!

Скачать Декодер / Decoder (1984) BDRemux 1080р | L2 бесплатно через торрент

  • Поучаствуй (в качестве покупателя) в любых пяти совместных покупках (кроме завершённых и "Моментальных") и получи группу "Новичок" навсегда -> ссылка на раздел
  • Получай до 480 рублей за каждого приглашенного пользователя!
    представляем Вам очередное расширение партнерской программы, подробности описаны тут -> ссылка
  • 90% материалов доступно к скачиванию после простой регистрации!
    Если же ты хочешь скачивать материалы без требования оставлять отзывы то получи группу "Новичок", 10 способов повышения описаны тут -> ссылка
  • К сожалению количество битых ссылок растет и мы уже не можем их оперативно восстанавливать поэтому просим помощи у каждого нашего пользователя.
    С сегодняшнего дня, за каждую восстановленную ссылку мы заплатим Вам.
    Подробнее тут -> ссылка
  • Перенесем твои заслуги с другого ресурса!
    Мы понимаем как сложно прокачивать аккаунты на форумах, вроде раскачал аккаунт, а тут появляется ресурс в 100 раз круче но тоже с системой прокачки и снова качать аккаунт...
    Предлагаем вам перенести Ваши заслуги на другом подобном ресурсе к нам.
    Подробности описаны тут -> ссылка
  • Вы можете получать по 2.5% с каждой покупки и продажи на маркете! Подробности в теме Партнёрская программа
Если Вы не хотите скачивать, Вы всегда можетепосмотретьонлайн, просто нажмите кнопку ниже :

Открыть плеер

Torrent_Bot

Торрент-Бот
Бот форума
4 Окт 2016
92
160
20



Информация о фильме
Название: Декодер
Оригинальное название: Decoder
Год выхода: 1984
Жанр: ужасы, детектив, фантастика
Режиссер: Муша
В ролях: ЭфЭм Эйнхайт, Уильям Райс, Кристиана Фельшеринов, Брицхольд Барон Де Белль, Маттиас Фукс, Уильям С. Берроуз, Дженезис Пи-Орридж, Слим Дарко, Эрвин Лиске, Мона Мур и др.

Описание: Главный герой Ф. М. проводит время за странными аудиоэкспериментами, его не менее «фриковая» подруга Кристиана работает в пип-шоу, и помешана на лягушках. Однажды Ф. М. узнаёт, что в местной сети фаст-фуд используется «зомбирующая» музыка Muzak, и хочет воспрепятствовать этому. Во сне ему является загадочный старик, подсказывающий направление поисков. После этого Ф. М. знакомится с группой подпольщиков — «информационных пиратов», которые помогают ему в его борьбе. Но представители корпорации Muzak пытаются расстроить его планы, и посылают своего агента Йагера охотиться за молодым человеком…



Страна: Германия
Продолжительность: 01:28:34
Перевод: любительский (двухголосый, закадровый) Infinte Jest Studio
Cубтитры: русские, английские (Full, SDH)
Оригинальная аудиодорожка: немецкий

Файл
Качество: BDRemux 1080р
Видео: MPEG-4 AVC Video / 34884 kbps / 1080p / 23.976 fps / 16:9 / High Profile 4.1
Аудио 1: Russian / DTS-HD Master Audio / 1.0 / 96 kHz / 1412 kbps / Infinte Jest Studio
Аудио 2: German / DTS-HD Master Audio / 1.0 / 96 kHz / 1336 kbps / 24-bit (DTS Core: 1.0 / 48 kHz / 768 kbps / 24-bit)
Аудио 3: English / AC3 / 1.0 / 48kHz / 128 kbps / Комментарий кинокритика Кьер-Ля Жанисс

Скриншоты
MediaInfo
General
Unique ID : 69656535043024995772716180429353065082 (0x34675C549E1ADA9C6716DE21381D1A7A)
Complete name : C:UsersИльяDesktopDecoderDecoder BDRemux.mkv
Format : Matroska
Format version : Version 4
File size : 23.4 GiB
Duration : 1 h 28 min
Overall bit rate mode : Variable
Overall bit rate : 37.8 Mb/s
Encoded date : UTC 2020-06-09 08:59:11
Writing application : mkvmerge v45.0.0 ('Heaven in Pennies') 32-bit
Writing library : libebml v1.3.10 + libmatroska v1.5.2

Video
ID : 1
Format : AVC
Format/Info : Advanced Video Codec
Format profile : [email protected]
Format settings : CABAC / 3 Ref Frames
Format settings, CABAC : Yes
Format settings, Reference frames : 3 frames
Codec ID : V_MPEG4/ISO/AVC
Duration : 1 h 28 min
Bit rate mode : Variable
Bit rate : 35.0 Mb/s
Maximum bit rate : 40.0 Mb/s
Width : 1 920 pixels
Height : 1 080 pixels
Display aspect ratio : 16:9
Frame rate mode : Constant
Frame rate : 23.976 (24000/1001) FPS
Standard : NTSC
Color space : YUV
Chroma subsampling : 4:2:0
Bit depth : 8 bits
Scan type : Progressive
Bits/(Pixel*Frame) : 0.704
Stream size : 21.6 GiB (92%)
Writing library : x264pro - Adobe CS Exporter Plug-in
Encoding settings : cabac=1 / ref=4 / deblock=1:-1:-1 / analyse=0x3:0x133 / me=umh / subme=10 / psy=1 / psy_rd=1.00:0.15 / mixed_ref=1 / me_range=24 / chroma_me=1 / trellis=2 / 8x8dct=1 / cqm=0 / deadzone=21,11 / fast_pskip=1 / chroma_qp_offset=-3 / threads=12 / lookahead_threads=2 / sliced_threads=0 / slices=4 / nr=0 / decimate=1 / interlaced=0 / bluray_compat=1 / constrained_intra=0 / bframes=3 / b_pyramid=1 / b_adapt=2 / b_bias=0 / direct=3 / weightb=1 / open_gop=0 / weightp=1 / keyint=24 / keyint_min=1 / scenecut=40 / intra_refresh=0 / rc_lookahead=24 / rc=2pass / mbtree=1 / bitrate=35000 / ratetol=1.0 / qcomp=0.60 / qpmin=0 / qpmax=69 / qpstep=4 / cplxblur=20.0 / qblur=0.5 / vbv_maxrate=40000 / vbv_bufsize=30000 / nal_hrd=vbr / ip_ratio=1.40 / aq=1:1.00
Language : English
Default : No
Forced : No
Color range : Limited
Color primaries : BT.709
Transfer characteristics : BT.709
Matrix coefficients : BT.709

Audio #1
ID : 2
Format : DTS XLL
Format/Info : Digital Theater Systems
Commercial name : DTS-HD Master Audio
Codec ID : A_DTS
Duration : 1 h 28 min
Bit rate mode : Variable
Bit rate : 1 412 kb/s
Channel(s) : 1 channel
Channel layout : C
Sampling rate : 96.0 kHz
Frame rate : 187.500 FPS (512 SPF)
Bit depth : 24 bits
Compression mode : Lossless
Stream size : 895 MiB (4%)
Title : Russian
Language : Russian
Default : Yes
Forced : No

Audio #2
ID : 3
Format : DTS XLL
Format/Info : Digital Theater Systems
Commercial name : DTS-HD Master Audio
Codec ID : A_DTS
Duration : 1 h 28 min
Bit rate mode : Variable
Bit rate : 1 336 kb/s
Channel(s) : 1 channel
Channel layout : C
Sampling rate : 96.0 kHz
Frame rate : 187.500 FPS (512 SPF)
Bit depth : 24 bits
Compression mode : Lossless
Stream size : 846 MiB (4%)
Title : Original
Language : English
Default : No
Forced : No

Audio #3
ID : 4
Format : AC-3
Format/Info : Audio Coding 3
Commercial name : Dolby Digital
Codec ID : A_AC3
Duration : 1 h 28 min
Bit rate mode : Constant
Bit rate : 128 kb/s
Channel(s) : 1 channel
Channel layout : C
Sampling rate : 48.0 kHz
Frame rate : 31.250 FPS (1536 SPF)
Compression mode : Lossy
Stream size : 81.1 MiB (0%)
Title : Commenrary
Language : English
Service kind : Complete Main
Default : No
Forced : No

Text #1
ID : 5
Format : UTF-8
Codec ID : S_TEXT/UTF8
Codec ID/Info : UTF-8 Plain Text
Duration : 1 h 24 min
Bit rate : 28 b/s
Count of elements : 621
Stream size : 17.9 KiB (0%)
Title : English SDH
Language : English
Default : No
Forced : No

Text #2
ID : 6
Format : UTF-8
Codec ID : S_TEXT/UTF8
Codec ID/Info : UTF-8 Plain Text
Duration : 1 h 26 min
Bit rate : 34 b/s
Count of elements : 376
Stream size : 21.9 KiB (0%)
Language : Russian
Default : No
Forced : No

Menu
00:00:00.000 : en:Chapter 01
00:15:31.972 : en:Chapter 02
00:26:55.155 : en:Chapter 03
00:47:15.457 : en:Chapter 04
01:03:43.277 : en:Chapter 05
01:14:39.391 : en:Chapter 06
 

Вложения

  • 117,7 KB Просмотры: 0
    Личеров 0
    Сидеров 0
    Файлов 1
    Объем 23,4 GB

Привет!

Мы группа людей которые решили помочь другим в решении их проблем, а так же пользователям с поиском самых свежих и качественных инфопродуктов. За 4 с небольшим месяца мы создали этот форум на который заходят ежедневно тысячи человек и посещаемость постоянно растёт. Мы создали панель лицензирования для защиты PHP скриптов от воровства и SEO панель для мониторинга наших сайтов и выбора верной стратегии их развития. Мы надеемся что то что мы создали пригодится Вам и возможно Вы поможете нам развиваться и совершенствоваться вместе с Вами.

Статистика форума

Темы
406.651
Сообщения
465.096
Пользователи
84.640
Новый пользователь
kvach

Приложения форума для iOS и Android


У ркн там нет власти ;)
Приватные разговоры
Помощь Пользователи
    Вы не присоединились ни к одной комнате.