За последнюю неделю опубликовано 46 новых материалов.
Инструкция новичку Путеводитель по форуму Прокси для Telegram Показать подсказки , это бомба!

Скачать Дэдвуд / Deadwood: The Movie (2019) WEB-DL 720p | Amedia бесплатно через торрент

  • Поучаствуй (в качестве покупателя) в любых пяти совместных покупках (кроме завершённых и "Моментальных") и получи группу "Новичок" навсегда -> ссылка на раздел
  • Получай до 480 рублей за каждого приглашенного пользователя!
    представляем Вам очередное расширение партнерской программы, подробности описаны тут -> ссылка
  • 90% материалов доступно к скачиванию после простой регистрации!
    Если же ты хочешь скачивать материалы без требования оставлять отзывы то получи группу "Новичок", 10 способов повышения описаны тут -> ссылка
  • К сожалению количество битых ссылок растет и мы уже не можем их оперативно восстанавливать поэтому просим помощи у каждого нашего пользователя.
    С сегодняшнего дня, за каждую восстановленную ссылку мы заплатим Вам.
    Подробнее тут -> ссылка
  • Перенесем твои заслуги с другого ресурса!
    Мы понимаем как сложно прокачивать аккаунты на форумах, вроде раскачал аккаунт, а тут появляется ресурс в 100 раз круче но тоже с системой прокачки и снова качать аккаунт...
    Предлагаем вам перенести Ваши заслуги на другом подобном ресурсе к нам.
    Подробности описаны тут -> ссылка
  • Вы можете получать по 2.5% с каждой покупки и продажи на маркете! Подробности в теме Партнёрская программа
Если Вы не хотите скачивать, Вы всегда можетепосмотретьонлайн, просто нажмите кнопку ниже :

Открыть плеер

Torrent_Bot

Торрент-Бот
Бот форума
4 Окт 2016
91
163
20



Информация о фильме
Название: Дэдвуд
Оригинальное название: Deadwood: The Movie
Год выхода: 2019
Жанр: вестерн
Режиссер: Даниэль Минахан
В ролях: Тимоти Олифант, Иэн Макшейн, Молли Паркер, Паула Малкомсон, У. Эрл Браун, Дэйтон Калли, Ким Диккенс, Брэд Дуриф, Анна Ганн, Джон Хоукс

О фильме: Выдающийся телевестерн «Дэдвуд», закрытый после третьего сезона, возвращается в полнометражной версии, чтобы наконец довести историю до финала. Исполнитель главной роли Иэн Макшейн вновь сыграл Эла Сверенджена. За режиссуру отвечал Даниэль Минахан («Игра престолов»). Продолжение стало возможным благодаря бессменному шоураннеру Дэвиду Милчу. Он уверен, фильм понравится не только фанатам, но и новичкам. По сюжету герои вестерна встречаются через десять лет после событий третьего сезона, чтобы отпраздновать признание родной Южной Дакоты официальным штатом. Новые времена диктуют свои правила, и в гонке за неизбежными изменениями возродится былое соперничество, а крепкие союзы дадут трещину. Воссоединится практически и вся старая актерская команда: Тимоти Олифант, Молли Паркер, Пола Малкомсон, Джон Хоукс, Анна Ганн, Дэйтон Калли, Брэд Дуриф, Робин Вайгерт, Уильям Сэндерсон, Ким Диккенс и Джеральд Макрейни. К ним примкнул Джейд Петтиджон.



Страна: США
Продолжительность: 01:50:00
Перевод: Профессиональный (многоголосый закадровый) Greb&Creative по заказу Amedia

Файл
Качество: WEB-DL 720p
Формат: Matroska
Видео: 1280x720 at 23.976 fps, MPEG-4 AVC, ~5900 kbps avg
Аудио#1: Russian: 48 kHz, AC3, 3/2 (L,C,R,l,r) + LFE ch, ~384 kbps avg |Многоголосый закадровый, Greb&Creative по заказу Amedia|
Аудио#2: English: 48 kHz, E-AC3, 3/2 (L,C,R,l,r) + LFE ch, ~640 kbps avg
Cубтитры: Russian, English (SDH)

***Примечание: Без рекламы
***Релиз: [email protected]

Скриншоты
MediaInfo
General
Unique ID : 260240772168613871565871859531153540890 (0xC3C88CB1BBCAF048EBF0275C7786071A)
Complete name : Deadwood.The.Movie.720p.AMZN.WEB-DL.DDP5.1.H.264-EniaHD.mkv
Format : Matroska
Format version : Version 4 / Version 2
File size : 5.08 GiB
Duration : 1 h 50 min
Overall bit rate : 6 610 kb/s
Movie name : Deadwood: The Movie (2019) - EniaHD
Encoded date : UTC 2019-06-01 12:47:09
Writing application : mkvmerge v34.0.0 ('Sight and Seen') 64-bit
Writing library : libebml v1.3.7 + libmatroska v1.5.0

Video
ID : 1
Format : AVC
Format/Info : Advanced Video Codec
Format profile : [email protected]
Format settings : CABAC / 4 Ref Frames
Format settings, CABAC : Yes
Format settings, ReFrames : 4 frames
Codec ID : V_MPEG4/ISO/AVC
Duration : 1 h 50 min
Bit rate mode : Constant
Bit rate : 5 583 kb/s
Nominal bit rate : 6 000 kb/s
Width : 1 280 pixels
Height : 720 pixels
Display aspect ratio : 16:9
Frame rate mode : Constant
Frame rate : 23.976 (24000/1001) FPS
Color space : YUV
Chroma subsampling : 4:2:0
Bit depth : 8 bits
Scan type : Progressive
Bits/(Pixel*Frame) : 0.253
Stream size : 4.29 GiB (84%)
Default : Yes
Forced : No
Color range : Limited
Color primaries : BT.709
Transfer characteristics : BT.709
Matrix coefficients : BT.709

Audio #1
ID : 2
Format : AC-3
Format/Info : Audio Coding 3
Codec ID : A_AC3
Duration : 1 h 50 min
Bit rate mode : Constant
Bit rate : 384 kb/s
Channel(s) : 6 channels
Channel positions : Front: L C R, Side: L R, LFE
Sampling rate : 48.0 kHz
Frame rate : 31.250 FPS (1536 SPF)
Bit depth : 16 bits
Compression mode : Lossy
Stream size : 302 MiB (6%)
Title : Greb&Creative
Language : Russian
Service kind : Complete Main
Default : Yes
Forced : No

Audio #2
ID : 3
Format : E-AC-3
Format/Info : Enhanced Audio Coding 3
Codec ID : A_EAC3
Duration : 1 h 50 min
Bit rate mode : Constant
Bit rate : 640 kb/s
Channel(s) : 6 channels
Channel positions : Front: L C R, Side: L R, LFE
Sampling rate : 48.0 kHz
Frame rate : 187.500 FPS (256 SPF)
Compression mode : Lossy
Stream size : 504 MiB (10%)
Title : Original
Language : English
Service kind : Complete Main
Default : No
Forced : No

Text #1
ID : 4
Format : UTF-8
Codec ID : S_TEXT/UTF8
Codec ID/Info : UTF-8 Plain Text
Duration : 1 h 47 min
Bit rate : 79 b/s
Count of elements : 1285
Stream size : 62.4 KiB (0%)
Language : Russian
Default : No
Forced : No

Text #2
ID : 5
Format : UTF-8
Codec ID : S_TEXT/UTF8
Codec ID/Info : UTF-8 Plain Text
Duration : 1 h 49 min
Bit rate : 63 b/s
Count of elements : 1904
Stream size : 50.8 KiB (0%)
Title : SDH
Language : English
Default : No
Forced : No
 

Вложения

  • 102,6 KB Просмотры: 1
    Личеров 0
    Сидеров 0
    Файлов 1
    Объем 5,1 GB

Привет!

Мы группа людей которые решили помочь другим в решении их проблем, а так же пользователям с поиском самых свежих и качественных инфопродуктов. За 4 с небольшим месяца мы создали этот форум на который заходят ежедневно тысячи человек и посещаемость постоянно растёт. Мы создали панель лицензирования для защиты PHP скриптов от воровства и SEO панель для мониторинга наших сайтов и выбора верной стратегии их развития. Мы надеемся что то что мы создали пригодится Вам и возможно Вы поможете нам развиваться и совершенствоваться вместе с Вами.

Статистика форума

Темы
410.521
Сообщения
469.056
Пользователи
85.937
Новый пользователь
bvcxz88

Приложения форума для iOS и Android


У ркн там нет власти ;)
Приватные разговоры
Помощь Пользователи
    Вы не присоединились ни к одной комнате.