За последнюю неделю опубликовано 59 новых материалов.
Инструкция новичку Путеводитель по форуму Прокси для Telegram Показать подсказки , это бомба!

Скачать Дедушка моей мечты (2015) WEB-DLRip от GeneralFilm | КПК | iTunes бесплатно через торрент

  • Поучаствуй (в качестве покупателя) в любых пяти совместных покупках (кроме завершённых и "Моментальных") и получи группу "Новичок" навсегда -> ссылка на раздел
  • Получай до 480 рублей за каждого приглашенного пользователя!
    представляем Вам очередное расширение партнерской программы, подробности описаны тут -> ссылка
  • 90% материалов доступно к скачиванию после простой регистрации!
    Если же ты хочешь скачивать материалы без требования оставлять отзывы то получи группу "Новичок", 10 способов повышения описаны тут -> ссылка
  • К сожалению количество битых ссылок растет и мы уже не можем их оперативно восстанавливать поэтому просим помощи у каждого нашего пользователя.
    С сегодняшнего дня, за каждую восстановленную ссылку мы заплатим Вам.
    Подробнее тут -> ссылка
  • Перенесем твои заслуги с другого ресурса!
    Мы понимаем как сложно прокачивать аккаунты на форумах, вроде раскачал аккаунт, а тут появляется ресурс в 100 раз круче но тоже с системой прокачки и снова качать аккаунт...
    Предлагаем вам перенести Ваши заслуги на другом подобном ресурсе к нам.
    Подробности описаны тут -> ссылка
  • Вы можете получать по 2.5% с каждой покупки и продажи на маркете! Подробности в теме Партнёрская программа
Если Вы не хотите скачивать, Вы всегда можетепосмотретьонлайн, просто нажмите кнопку ниже :

Открыть плеер

Torrent_Bot

Торрент-Бот
Бот форума
4 Окт 2016
90
168
20
Информация о фильме
Название: Дедушка моей мечты
Год выхода: 2015
Жанр:комедия, семейный
Режиссер: Александр Стриженов
В ролях: Николай Добрынин, Екатерина Стриженова, Леонид Якубович, Анна Ардова, Виктор Супрун, Виталий Хаев, Иван Кокорин, Александр Добровинский, Александр Пряников, Грант Палагаев

О фильме: Гротесковая семейная комедия, поднимающая извечный вопрос о том, насколько мы зависим от материального благополучия, которое внезапно обрушивается на нашу голову.



Выпущено: Россия
Продолжительность: 01:41:54
Озвучивание: Оригинальное [iTunes]

Файл
Кодек: H.264
Качество: WEB-DLRip
Видео: MPEG-4 AVC, ~ 580 Кбит/с, 480х200, 24.000 кадр/с
Звук: AAC LC 4.0, 2 ch, ~ 140 Кбит/с

МедиаИнфо
Общее
Полное имя : Dedushka.moej.mechty.2015.PSP.H264.WEB-DLRip.by.GeneralFilm
Формат : MPEG-4
Профиль формата : Base Media
Идентификатор кодека : isom (isom/avc1/iso6)
Размер файла : 423 Мбайт
Продолжительность : 1 ч. 41 м.
Режим общего битрейта : Переменный
Общий поток : 581 Кбит/сек
Дата кодирования : UTC 2016-01-09 16:00:40
Дата пометки : UTC 2016-01-09 16:00:40

Видео
Идентификатор : 1
Формат : AVC
Формат/Информация : Advanced Video Codec
Профиль формата : [email protected]
Параметр CABAC формата : Да
Параметр ReFrames формата : 9 кадров
Идентификатор кодека : avc1
Идентификатор кодека/Информация : Advanced Video Coding
Продолжительность : 1 ч. 41 м.
Битрейт : 460 Кбит/сек
Максимальный битрейт : 3186 Кбит/сек
Ширина : 480 пикселей
Высота : 200 пикселей
Соотношение сторон : 2,40:1
Режим частоты кадров : Постоянный
Частота кадров : 24,000 кадра/сек
Цветовое пространство : YUV
Субдискретизация насыщенности : 4:2:0
Битовая глубина : 8 бит
Тип развёртки : Прогрессивная
Бит/(Пиксели*Кадры) : 0.200
Размер потока : 335 Мбайт (79%)
Заголовок : [email protected]
Библиотека кодирования : x264 core 146 r2538 121396c
Настройки программы : cabac=1 / ref=9 / deblock=1:1:1 / analyse=0x1:0x131 / me=umh / subme=10 / psy=1 / psy_rd=1.00:0.00 / mixed_ref=1 / me_range=16 / chroma_me=1 / trellis=2 / 8x8dct=0 / cqm=0 / deadzone=21,11 / fast_pskip=0 / chroma_qp_offset=-2 / threads=12 / lookahead_threads=1 / sliced_threads=0 / nr=0 / decimate=1 / interlaced=0 / bluray_compat=0 / constrained_intra=0 / bframes=3 / b_pyramid=0 / b_adapt=2 / b_bias=0 / direct=3 / weightb=1 / open_gop=0 / weightp=2 / keyint=250 / keyint_min=23 / scenecut=40 / intra_refresh=0 / rc_lookahead=60 / rc=2pass / mbtree=1 / bitrate=460 / ratetol=1.0 / qcomp=0.70 / qpmin=0 / qpmax=69 / qpstep=4 / cplxblur=20.0 / qblur=0.5 / ip_ratio=1.40 / aq=1:0.60
Дата кодирования : UTC 2016-01-09 16:00:40
Дата пометки : UTC 2016-01-09 16:00:52

Аудио
Идентификатор : 2
Формат : AAC
Формат/Информация : Advanced Audio Codec
Профиль формата : LC
Идентификатор кодека : 40
Продолжительность : 1 ч. 41 м.
Вид битрейта : Переменный
Битрейт : 117 Кбит/сек
Максимальный битрейт : 168 Кбит/сек
Каналы : 2 канала
Расположение каналов : Front: L R
Частота : 48,0 КГц
Частота кадров : 46,875 кадров/сек (1024 spf)
Метод сжатия : С потерями
Размер потока : 85,4 Мбайт (20%)
Дата кодирования : UTC 2016-01-09 15:04:05
Дата пометки : UTC 2016-01-09 16:00:52
Семпл Скриншоты


Релиз от:
 

Вложения

  • 17,6 KB Просмотры: 0
    Личеров 0
    Сидеров 0
    Файлов 1
    Объем 423,3 MB

Привет!

Мы группа людей которые решили помочь другим в решении их проблем, а так же пользователям с поиском самых свежих и качественных инфопродуктов. За 4 с небольшим месяца мы создали этот форум на который заходят ежедневно тысячи человек и посещаемость постоянно растёт. Мы создали панель лицензирования для защиты PHP скриптов от воровства и SEO панель для мониторинга наших сайтов и выбора верной стратегии их развития. Мы надеемся что то что мы создали пригодится Вам и возможно Вы поможете нам развиваться и совершенствоваться вместе с Вами.

Статистика форума

Темы
410.941
Сообщения
469.355
Пользователи
88.283
Новый пользователь
dhsjsnfc

Приложения форума для iOS и Android


У ркн там нет власти ;)
Приватные разговоры
Помощь Пользователи
    Вы не присоединились ни к одной комнате.