За последнюю неделю опубликовано 49 новых материалов.
Инструкция новичку Путеводитель по форуму Прокси для Telegram Показать подсказки , это бомба!

Скачать Дед, привет! / Удачи тебе, Ворчун / Ilosia aikoja, Mielensäpahoittaja / Happier times, Grump! (2018) BDRip-AVC | iTunes бесплатно через торрент

  • Поучаствуй (в качестве покупателя) в любых пяти совместных покупках (кроме завершённых и "Моментальных") и получи группу "Новичок" навсегда -> ссылка на раздел
  • Получай до 480 рублей за каждого приглашенного пользователя!
    представляем Вам очередное расширение партнерской программы, подробности описаны тут -> ссылка
  • 90% материалов доступно к скачиванию после простой регистрации!
    Если же ты хочешь скачивать материалы без требования оставлять отзывы то получи группу "Новичок", 10 способов повышения описаны тут -> ссылка
  • К сожалению количество битых ссылок растет и мы уже не можем их оперативно восстанавливать поэтому просим помощи у каждого нашего пользователя.
    С сегодняшнего дня, за каждую восстановленную ссылку мы заплатим Вам.
    Подробнее тут -> ссылка
  • Перенесем твои заслуги с другого ресурса!
    Мы понимаем как сложно прокачивать аккаунты на форумах, вроде раскачал аккаунт, а тут появляется ресурс в 100 раз круче но тоже с системой прокачки и снова качать аккаунт...
    Предлагаем вам перенести Ваши заслуги на другом подобном ресурсе к нам.
    Подробности описаны тут -> ссылка
  • Вы можете получать по 2.5% с каждой покупки и продажи на маркете! Подробности в теме Партнёрская программа
Если Вы не хотите скачивать, Вы всегда можетепосмотретьонлайн, просто нажмите кнопку ниже :

Открыть плеер

Torrent_Bot

Торрент-Бот
Бот форума
4 Окт 2016
93
160
20



Информация о фильме
Название: Дед, привет! / Удачи тебе, Ворчун
Оригинальное название: Ilosia aikoja, Mielensäpahoittaja / Happier Times, Grump
Год выхода: 2018
Жанр: комедия, драма
Режиссер: Тийна Люми
В ролях: Хейкки Киннунен, Сату Туули Карху, Элина Книхтиля, Яни Воланен, Иикка Форсс, Мари Перанкоски, Сулеви Пелтола, Янне Реинкаинен, Лотта Каихуа, Петра Фрэй

О фильме:
Ворчун проводил в последний путь свою жену и хочет умереть, потому что все дела переделаны и смысл жизни пропал. Но вместе с мрачными мыслями к нему неожиданно приходит новая забота. Его 17-летняя внучка София оказалась в беде, и остро нуждается в упрямстве и мудрости своего деда. Так Ворчун обретает новый смысл жизни и желание бороться за счастье близкого человека.



Выпущено: Финляндия / Solar Films
Продолжительность: 01:56:09
Озвучивание: Дублированное | iTunes
Субтитры: Русские (porcellus-srt), Русские (pgs), Английские (pgs)

Файл
Формат: Matroska
Качество: BDRip-AVC [DED_PRIVET_2018_RMX_BLUEBIRD]
Видео: 1194x500 at 23.976 fps, [email protected], ~2017 kbps
Аудио: AC3, 6 ch, ~384 kbps - | Русский | -

***Релиз от:-=DoMiNo=-

M/I
x264 [info]: frame I:1230 Avg QP:15.20 size: 90965
x264 [info]: frame P:35005 Avg QP:16.97 size: 24380
x264 [info]: frame B:130875 Avg QP:19.78 size: 6048

General
Format : Matroska
Format version : Version 4
File size : 1.97 GiB
Duration : 1 h 56 min
Overall bit rate : 2 429 kb/s
Movie name : Дед, привет!.(2018).BDRip-AVC.[-=DoMiNo=-]
Encoded date : UTC 2020-08-24 06:32:55
Writing application : mkvmerge v49.0.0 ('Sick Of Losing Soulmates') 64-bit
Writing library : libebml v1.4.0 + libmatroska v1.6.1
Cover : Yes
Attachments : Cover.jpg / Cover 2.jpg

Video
ID : 1
Format : AVC
Format/Info : Advanced Video Codec
Format profile : [email protected]
Format settings : CABAC / 12 Ref Frames
Format settings, CABAC : Yes
Format settings, Reference : 12 frames
Codec ID : V_MPEG4/ISO/AVC
Duration : 1 h 56 min
Bit rate : 2 017 kb/s
Width : 1 194 pixels
Height : 500 pixels
Display aspect ratio : 2.40:1
Frame rate mode : Constant
Frame rate : 23.976 (24000/1001) FPS
Color space : YUV
Chroma subsampling : 4:2:0
Bit depth : 8 bits
Scan type : Progressive
Bits/(Pixel*Frame) : 0.141
Stream size : 1.64 GiB (83%)
Title : -=DoMiNo=-
Writing library : x264 core 161 r3018 db0d417
Encoding settings : cabac=1 / ref=12 / deblock=1:-3:-3 / analyse=0x3:0x133 / me=umh / subme=11 / psy=1 / psy_rd=1.00:0.00 / mixed_ref=1 / me_range=32 / chroma_me=1 / trellis=2 / 8x8dct=1 / cqm=0 / deadzone=21,11 / fast_pskip=0 / chroma_qp_offset=-2 / threads=6 / lookahead_threads=1 / sliced_threads=0 / nr=0 / decimate=1 / interlaced=0 / bluray_compat=0 / constrained_intra=0 / bframes=10 / b_pyramid=2 / b_adapt=2 / b_bias=0 / direct=1 / weightb=1 / open_gop=0 / weightp=2 / keyint=250 / keyint_min=23 / scenecut=40 / intra_refresh=0 / rc_lookahead=60 / rc=crf / mbtree=0 / crf=17.5 / qcomp=0.60 / qpmin=0 / qpmax=69 / qpstep=4 / vbv_maxrate=50000 / vbv_bufsize=62500 / crf_max=0.0 / nal_hrd=none / filler=0 / ip_ratio=1.40 / pb_ratio=1.30 / aq=3:0.80
Language : English
Default : Yes
Forced : No
Color range : Limited
Color primaries : BT.709
Transfer characteristics : BT.709
Matrix coefficients : BT.709

Audio
ID : 2
Format : AC-3
Format/Info : Audio Coding 3
Commercial name : Dolby Digital
Codec ID : A_AC3
Duration : 1 h 55 min
Bit rate mode : Constant
Bit rate : 384 kb/s
Channel(s) : 6 channels
Channel layout : L R C LFE Ls Rs
Sampling rate : 48.0 kHz
Frame rate : 31.250 FPS (1536 SPF)
Compression mode : Lossy
Stream size : 317 MiB (16%)
Title : DUB
Language : Russian
Service kind : Complete Main
Default : Yes
Forced : No

Text #1
ID : 3
Format : UTF-8
Codec ID : S_TEXT/UTF8
Codec ID/Info : UTF-8 Plain Text
Duration : 1 h 51 min
Bit rate : 92 b/s
Count of elements : 1100
Stream size : 75.3 KiB (0%)
Title : porcellus
Language : Russian
Default : No
Forced : No

Text #2
ID : 4
Format : PGS
Muxing mode : zlib
Codec ID : S_HDMV/PGS
Codec ID/Info : Picture based subtitle format used on BDs/HD-DVDs
Duration : 1 h 51 min
Bit rate : 36.0 kb/s
Count of elements : 3466
Stream size : 28.6 MiB (1%)
Language : Russian
Default : No
Forced : No

Text #3
ID : 5
Format : PGS
Muxing mode : zlib
Codec ID : S_HDMV/PGS
Codec ID/Info : Picture based subtitle format used on BDs/HD-DVDs
Duration : 1 h 54 min
Bit rate : 21.2 kb/s
Count of elements : 2190
Stream size : 17.4 MiB (1%)
Language : English
Default : No
Forced : No

Menu
00:00:00.000 : :Глава 1
00:08:59.038 : :Глава 2
00:19:38.759 : :Глава 3
00:29:33.480 : :Глава 4
00:39:19.190 : :Глава 5
00:50:25.981 : :Глава 6
00:59:21.932 : :Глава 7
01:09:39.800 : :Глава 8
01:20:19.898 : :Глава 9
01:24:03.872 : :Глава 10
01:37:07.279 : :Глава 11
01:52:14.560 : :Глава 12
01:55:26.836 : :Глава 13
Скриншоты
 

Вложения

  • 79,9 KB Просмотры: 0
    Личеров 0
    Сидеров 0
    Файлов 1
    Объем 2 GB

Привет!

Мы группа людей которые решили помочь другим в решении их проблем, а так же пользователям с поиском самых свежих и качественных инфопродуктов. За 4 с небольшим месяца мы создали этот форум на который заходят ежедневно тысячи человек и посещаемость постоянно растёт. Мы создали панель лицензирования для защиты PHP скриптов от воровства и SEO панель для мониторинга наших сайтов и выбора верной стратегии их развития. Мы надеемся что то что мы создали пригодится Вам и возможно Вы поможете нам развиваться и совершенствоваться вместе с Вами.

Статистика форума

Темы
406.640
Сообщения
465.116
Пользователи
84.570
Новый пользователь
Azari666

Приложения форума для iOS и Android


У ркн там нет власти ;)
Приватные разговоры
Помощь Пользователи
    Вы не присоединились ни к одной комнате.