За последнюю неделю опубликовано 0 новых материалов.
Инструкция новичку Путеводитель по форуму Прокси для Telegram Показать подсказки , это бомба!

Скачать Дед Мороз. Битва Магов (2016) WEB-DLRip-AVC от ExKinoRay | iTunes бесплатно через торрент

  • Поучаствуй (в качестве покупателя) в любых пяти совместных покупках (кроме завершённых и "Моментальных") и получи группу "Новичок" навсегда -> ссылка на раздел
  • Получай до 480 рублей за каждого приглашенного пользователя!
    представляем Вам очередное расширение партнерской программы, подробности описаны тут -> ссылка
  • 90% материалов доступно к скачиванию после простой регистрации!
    Если же ты хочешь скачивать материалы без требования оставлять отзывы то получи группу "Новичок", 10 способов повышения описаны тут -> ссылка
  • К сожалению количество битых ссылок растет и мы уже не можем их оперативно восстанавливать поэтому просим помощи у каждого нашего пользователя.
    С сегодняшнего дня, за каждую восстановленную ссылку мы заплатим Вам.
    Подробнее тут -> ссылка
  • Перенесем твои заслуги с другого ресурса!
    Мы понимаем как сложно прокачивать аккаунты на форумах, вроде раскачал аккаунт, а тут появляется ресурс в 100 раз круче но тоже с системой прокачки и снова качать аккаунт...
    Предлагаем вам перенести Ваши заслуги на другом подобном ресурсе к нам.
    Подробности описаны тут -> ссылка
  • Вы можете получать по 2.5% с каждой покупки и продажи на маркете! Подробности в теме Партнёрская программа
Если Вы не хотите скачивать, Вы всегда можетепосмотретьонлайн, просто нажмите кнопку ниже :

Открыть плеер

Torrent_Bot

Торрент-Бот
Бот форума
4 Окт 2016
79
196
20

Дед Мороз. Битва Магов



Год выпуска: 2016
Страна: Россия
Производство: кинокомпания Ангел Фильм, Renovatio
Жанр: Фэнтези, семейный, приключения

Режиссёр: Александр Войтинский
В ролях: Фёдор Бондарчук, Алексей Кравченко, Таисия Вилкова, Никита Волков, Владимир Гостюхин, Егор Бероев, Ксения Алфёрова, Сергей Бадюк, Ян Цапник, Светлана Пермякова

Перевод: Не требуется

Описание: Юную Машу мучают видения летающих огненных монстров. Мама переживает за дочь, одноклассники посмеиваются. Но однажды в самом центре Москвы Маша видит наяву сражение крылатых огненных чудовищ с молодыми людьми, которые называют себя магами. Один из них в последний момент, спасает Машу от нападения химеры. Так Маша попадает в секретную корпорацию, где узнаёт, что Дед Мороз реально существует и, возглавляя армию магов, способных управлять снегом и льдом, охраняет Землю от вторжения темных сил.



Качество: WEB-DLRip-AVC
Продолжительность: 01:56:26

Формат: MKV
Видео кодек: MPEG-4 AVC
Аудио кодек: AC3
Видео: 720x304 (16:9), 23.976 fps, x264 ~1600 kbps avg, 0.305 bit/pixel
Аудио: 48 kHz, AC3, 2 (L,R) ch, ~192.00 kbps avg | RUS

Дата премьеры (РФ): 24 декабря 2016, «Двадцатый Век Фокс СНГ»


Релиз от: Rip by:



MediaInfo
Общее
Уникальный идентификатор : 225493926573446483076301460933991793211 (0xA9A48CF09DFAE81F8327DDBF4BCD023B)
Полное имя : D:Ded.moroz.Bitva.Magov.2016.WEB-DLRip(AVC).ExKinoRay.mkv
Формат : Matroska
Версия формата : Version 2
Размер файла : 1,46 Гбайт
Продолжительность : 1 ч. 56 м.
Общий поток : 1792 Кбит/сек
Название фильма : Ded.moroz.Bitva.Magov.2016.WEB-DLRip(AVC).ExKinoRay #TorpedoUK#
Дата кодирования : UTC 2017-01-24 08:20:18
Программа кодирования : mkvmerge v7.8.0 ('River Man') 32bit built on Apr 3 2015 12:11:22
Библиотека кодирования : libebml v1.3.1 + libmatroska v1.4.2

Видео
Идентификатор : 1
Формат : AVC
Формат/Информация : Advanced Video Codec
Профиль формата : [email protected]
Параметр CABAC формата : Да
Параметр ReFrames формата : 10 кадров
Идентификатор кодека : V_MPEG4/ISO/AVC
Продолжительность : 1 ч. 56 м.
Битрейт : 1600 Кбит/сек
Ширина : 720 пикселей
Высота : 304 пикселя
Соотношение сторон : 2,35:1
Режим частоты кадров : Постоянный
Частота кадров : 24,000 кадра/сек
Цветовое пространство : YUV
Субдискретизация насыщенности : 4:2:0
Битовая глубина : 8 бит
Тип развёртки : Прогрессивная
Бит/(Пиксели*Кадры) : 0.305
Размер потока : 1,27 Гбайт (87%)
Библиотека кодирования : x264 core 146 r2538 121396c
Настройки программы : cabac=1 / ref=10 / deblock=1:-3:-3 / analyse=0x3:0x133 / me=umh / subme=10 / psy=1 / psy_rd=1.00:0.03 / mixed_ref=1 / me_range=48 / chroma_me=1 / trellis=2 / 8x8dct=1 / cqm=0 / deadzone=21,11 / fast_pskip=0 / chroma_qp_offset=-3 / threads=6 / lookahead_threads=1 / sliced_threads=0 / nr=0 / decimate=0 / interlaced=0 / bluray_compat=0 / constrained_intra=0 / bframes=10 / b_pyramid=2 / b_adapt=2 / b_bias=0 / direct=3 / weightb=1 / open_gop=0 / weightp=2 / keyint=250 / keyint_min=23 / scenecut=40 / intra_refresh=0 / rc_lookahead=40 / rc=2pass / mbtree=0 / bitrate=1600 / ratetol=1.0 / qcomp=0.60 / qpmin=0 / qpmax=69 / qpstep=4 / cplxblur=20.0 / qblur=0.5 / vbv_maxrate=50000 / vbv_bufsize=62500 / nal_hrd=none / filler=0 / ip_ratio=1.40 / pb_ratio=1.30 / aq=1:1.00
Default : Да
Forced : Нет

Аудио
Идентификатор : 2
Формат : AC-3
Формат/Информация : Audio Coding 3
Расширение режима : CM (complete main)
Параметр Endianness формата : Big
Идентификатор кодека : A_AC3
Продолжительность : 1 ч. 56 м.
Вид битрейта : Постоянный
Битрейт : 192 Кбит/сек
Каналы : 2 канала
Расположение каналов : Front: L R
Частота : 48,0 КГц
Битовая глубина : 16 бит
Метод сжатия : С потерями
Размер потока : 160 Мбайт (11%)
Default : Да
Forced : Нет

Меню
00:00:00.000 : en:Глава 1
00:06:27.875 : en:Глава 2
00:14:55.791 : en:Глава 3
00:21:56.999 : en:Глава 4
00:30:33.707 : en:Глава 5
00:39:25.707 : en:Глава 6
00:44:41.832 : en:Глава 7
00:50:49.790 : en:Глава 8
00:59:22.206 : en:Глава 9
01:06:45.664 : en:Глава 10
01:12:19.205 : en:Глава 11
01:18:51.788 : en:Глава 12
01:24:22.663 : en:Глава 13
01:31:26.538 : en:Глава 14
01:38:17.121 : en:Глава 15
01:44:48.746 : en:Глава 16
01:49:05.287 : en:Глава 17
Скриншоты


 

Вложения

  • 15,5 KB Просмотры: 1
    Личеров 0
    Сидеров 0
    Файлов 1
    Объем 1,5 GB

Привет!

Мы группа людей которые решили помочь другим в решении их проблем, а так же пользователям с поиском самых свежих и качественных инфопродуктов. За 4 с небольшим месяца мы создали этот форум на который заходят ежедневно тысячи человек и посещаемость постоянно растёт. Мы создали панель лицензирования для защиты PHP скриптов от воровства и SEO панель для мониторинга наших сайтов и выбора верной стратегии их развития. Мы надеемся что то что мы создали пригодится Вам и возможно Вы поможете нам развиваться и совершенствоваться вместе с Вами.

Статистика форума

Темы
414.370
Сообщения
475.396
Пользователи
96.561
Новый пользователь
starushka

Приложения форума для iOS и Android


У ркн там нет власти ;)
Приватные разговоры
Помощь Пользователи
    Вы не присоединились ни к одной комнате.