За последнюю неделю опубликовано 51 новых материалов.
Инструкция новичку Путеводитель по форуму Прокси для Telegram Показать подсказки , это бомба!

Скачать Даурия (1971) DVDRip от New-Team бесплатно через торрент

  • Поучаствуй (в качестве покупателя) в любых пяти совместных покупках (кроме завершённых и "Моментальных") и получи группу "Новичок" навсегда -> ссылка на раздел
  • Получай до 480 рублей за каждого приглашенного пользователя!
    представляем Вам очередное расширение партнерской программы, подробности описаны тут -> ссылка
  • 90% материалов доступно к скачиванию после простой регистрации!
    Если же ты хочешь скачивать материалы без требования оставлять отзывы то получи группу "Новичок", 10 способов повышения описаны тут -> ссылка
  • К сожалению количество битых ссылок растет и мы уже не можем их оперативно восстанавливать поэтому просим помощи у каждого нашего пользователя.
    С сегодняшнего дня, за каждую восстановленную ссылку мы заплатим Вам.
    Подробнее тут -> ссылка
  • Перенесем твои заслуги с другого ресурса!
    Мы понимаем как сложно прокачивать аккаунты на форумах, вроде раскачал аккаунт, а тут появляется ресурс в 100 раз круче но тоже с системой прокачки и снова качать аккаунт...
    Предлагаем вам перенести Ваши заслуги на другом подобном ресурсе к нам.
    Подробности описаны тут -> ссылка
  • Вы можете получать по 2.5% с каждой покупки и продажи на маркете! Подробности в теме Партнёрская программа
Если Вы не хотите скачивать, Вы всегда можетепосмотретьонлайн, просто нажмите кнопку ниже :

Открыть плеер

Torrent_Bot

Торрент-Бот
Бот форума
4 Окт 2016
91
164
20
Страна: СССР
Производство: Ленфильм

Жанр: драма, мелодрама, приключения, история
Год выпуска: 1971
Продолжительность: 02:52:07 (01:26:05 + 01:26:02)

Перевод: Не требуется
Cубтитры: нет
Оригинальная аудиодорожка: русский

Режиссер: Виктор Трегубович

В ролях:
Аркадий Трусов, Пётр Шелохонов, Вера Кузнецова, Виталий Соломин, Василий Шукшин, Женя Малянцев, Фёдор Одиноков, Любовь Малиновская, Светлана Головина, Ефим Копелян, Борис Аракелов, Дмитрий Масанов, Виктор Павлов, Владимир Лосев, Юрий Соломин, Михаил Кокшенов, Всеволод Кузнецов, Игорь Ефимов, Юрий Дубровин, Георгий Штиль, Игорь Дмитриев...
Об актёрах подробней

Описание:
Широкоформатный фильм. Экранизация одноименного романа Константина Седых.
Хроника жизни небольшого поселка в Забайкалье накануне первой мировой войны и в годы Октябрьской революции.
Рушатся вековые устои, происходит расслоение масс, в результате которого одни идут воевать за революцию, другие - против нее.
Главный герой - молодой казак Роман Улыбин. Поначалу этот беззаботный сорвиголова занят только одним вопросом: выйдет за него замуж любимая девушка Дашутка или ее отдадут за купеческого сына Алешку. Однако постепенно парень замечает, что мир вокруг изменился, люди воюют за равенство и социальную справедливость, и он, бравый казак, не может остаться в стороне…





Источник: 2xDVD9 R5
Качество видео: DVDRip
Формат видео: AVI

Видео: 640x256 (2,529:1), 25 fps, XviD ~ 769 kbps avg, 0.188 bit/pixel
Аудио: 48 kHz, MP3 2.0, 128 kbps Русский

Раздача от:
MediaInfo
Общее
Полное имя : Dauriya.1971.DVDRip-1.09_[New-team]_by_AVP_StudioСерия 01.avi
Формат : AVI
Формат/Информация : Audio Video Interleave
Размер файла : 558 Мбайт
Продолжительность : 1 ч. 26 м.
Общий поток : 906 Кбит/сек
Программа кодирования : VirtualDubMod 1.5.10.3 | www.virtualdub-fr.org || (build 2550/release)
Библиотека кодирования : VirtualDubMod build 2550/release

Видео
Идентификатор : 0
Формат : MPEG-4 Visual
Профиль формата : Advanced [email protected]
Параметр BVOP формата : 1
Параметр QPel формата : Нет
Параметр GMC формата : Без точки перехода
Параметр матрицы формата : Выборочная
Идентификатор кодека : XVID
Идентификатор кодека/Подсказка : XviD
Продолжительность : 1 ч. 26 м.
Битрейт : 769 Кбит/сек
Ширина : 640 пикселей
Высота : 256 пикселей
Соотношение сторон : 2,500
Частота кадров : 25,000 кадров/сек
Цветовое пространство : YUV
Субдискретизация насыщенности : 4:2:0
Битовая глубина : 8 бит
Тип развёртки : Прогрессивная
Метод сжатия : С потерями
Бит/(Пиксели*Кадры) : 0.188
Размер потока : 473 Мбайт (85%)
Библиотека кодирования : XviD 73

Аудио
Идентификатор : 1
Формат : MPEG Audio
Версия формата : Version 1
Профиль формата : Layer 3
Идентификатор кодека : 55
Идентификатор кодека/Подсказка : MP3
Продолжительность : 1 ч. 26 м.
Вид битрейта : Постоянный
Битрейт : 128 Кбит/сек
Каналы : 2 канала
Частота : 48,0 КГц
Метод сжатия : С потерями
Размер потока : 78,8 Мбайт (14%)
Выравнивание : Соединение по промежуткам
Продолжительность промежутка : 40 мс. (1,00 видеокадр)
Время предзагрузки промежутка : 504 мс.
Библиотека кодирования : LAME3.99r
Настройки программы : -m s -V 4 -q 2 -lowpass 17 -b 128
Скриншоты
 

Вложения

  • 12,4 KB Просмотры: 0
    Личеров 0
    Сидеров 0
    Файлов 2
    Объем 1,1 GB

Привет!

Мы группа людей которые решили помочь другим в решении их проблем, а так же пользователям с поиском самых свежих и качественных инфопродуктов. За 4 с небольшим месяца мы создали этот форум на который заходят ежедневно тысячи человек и посещаемость постоянно растёт. Мы создали панель лицензирования для защиты PHP скриптов от воровства и SEO панель для мониторинга наших сайтов и выбора верной стратегии их развития. Мы надеемся что то что мы создали пригодится Вам и возможно Вы поможете нам развиваться и совершенствоваться вместе с Вами.

Статистика форума

Темы
410.572
Сообщения
469.128
Пользователи
86.230
Новый пользователь
loraia

Приложения форума для iOS и Android


У ркн там нет власти ;)
Приватные разговоры
Помощь Пользователи
    Вы не присоединились ни к одной комнате.