За последнюю неделю опубликовано 81 новых материалов.
Инструкция новичку Путеводитель по форуму Прокси для Telegram Показать подсказки , это бомба!

Скачать Дальше некуда / The Jesus Rolls (2019) BDRip-AVC | iTunes бесплатно через торрент

  • Поучаствуй (в качестве покупателя) в любых пяти совместных покупках (кроме завершённых и "Моментальных") и получи группу "Новичок" навсегда -> ссылка на раздел
  • Получай до 480 рублей за каждого приглашенного пользователя!
    представляем Вам очередное расширение партнерской программы, подробности описаны тут -> ссылка
  • 90% материалов доступно к скачиванию после простой регистрации!
    Если же ты хочешь скачивать материалы без требования оставлять отзывы то получи группу "Новичок", 10 способов повышения описаны тут -> ссылка
  • К сожалению количество битых ссылок растет и мы уже не можем их оперативно восстанавливать поэтому просим помощи у каждого нашего пользователя.
    С сегодняшнего дня, за каждую восстановленную ссылку мы заплатим Вам.
    Подробнее тут -> ссылка
  • Перенесем твои заслуги с другого ресурса!
    Мы понимаем как сложно прокачивать аккаунты на форумах, вроде раскачал аккаунт, а тут появляется ресурс в 100 раз круче но тоже с системой прокачки и снова качать аккаунт...
    Предлагаем вам перенести Ваши заслуги на другом подобном ресурсе к нам.
    Подробности описаны тут -> ссылка
  • Вы можете получать по 2.5% с каждой покупки и продажи на маркете! Подробности в теме Партнёрская программа
Если Вы не хотите скачивать, Вы всегда можетепосмотретьонлайн, просто нажмите кнопку ниже :

Открыть плеер

Torrent_Bot

Торрент-Бот
Бот форума
4 Окт 2016
102
153
20


«Хесус Квинтана снова в деле»

Информация о фильме
Название: Дальше некуда
Оригинальное название: The Jesus Rolls
Год выхода: 2019
Жанр: Драма, мелодрама, комедия, криминал
Режиссер: Джон Туртурро
В ролях: Джон Туртурро, Бобби Каннавале, Одри Тоту, Пит Дэвидсон, Джон Хэмм, Соня Брага, Сьюзен Сарандон, Кристофер Уокен, Майкл Бадалукко, Роза Гилмор

О фильме:
Хесус Квинтана — легендарный боулер и в прошлом самый грозный соперник того самого Лебовски. Выйдя из тюрьмы, в первый же день свободной жизни, он воссоединяется с друзьями и снова пускается во все тяжкие. Однако, каким бы отчаянным ни было его положение, не стоит забывать, что с Хесусом шутки плохи.



Страна: США
Студия: Sidney Kimmel Entertainment
Продолжительность: 01:25:30
Перевод:
• Профессиональный (полное дублирование) | iTunes

Файл
Качество: BDRip-AVC
Исходник: The.Jesus.Rolls.2019..1080p.BluRay.REMUX.AVC.DTS-HD.MA5.1-iFT
Формат: MKV
Кодек: MPEG-4 AVC
Видео: 1024x554 (1.85:1), 23.976 fps, MPEG-4 AVC ~ 2061 Kbps avg, 0.152 bit/pixel
Аудио: AC3, 48 kHz, 6 ch, ~384.00 kbps avg | русский | iTunes
Субтитры: Русские (Full)


Инфо-файл
Общее
Уникальный идентификатор : 85130827317137370248396233925001563260 (0x400B99D7FE67B624F190F064E8CD4C7C)
Полное имя : The.Jesus.Rolls.2019.iT.BDRip.1.46Gb.x264.mkv
Формат : Matroska
Версия формата : Version 4
Размер файла : 1,46 Гбайт
Продолжительность : 1 ч. 25 м.
Общий поток : 2440 Кбит/сек
Название фильма : Дальше некуда / The Jesus Rolls (2019)
Дата кодирования : UTC 2020-05-13 12:52:48
Программа кодирования : mkvmerge v46.0.0 ('No Deeper Escape') 64-bit
Библиотека кодирования : libebml v1.3.10 + libmatroska v1.5.2
Обложка : Yes
Attachments : cover.jpg

Видео
Идентификатор : 1
Формат : AVC
Формат/Информация : Advanced Video Codec
Профиль формата : High@L4.1
Настройки формата : CABAC / 10 Ref Frames
Параметр CABAC формата : Да
Параметр RefFrames формата : 10 кадров
Идентификатор кодека : V_MPEG4/ISO/AVC
Продолжительность : 1 ч. 25 м.
Битрейт : 2061 Кбит/сек
Ширина : 1024 пикселя
Высота : 554 пикселя
Соотношение сторон : 1,85:1
Режим частоты кадров : Постоянный
Частота кадров : 23,976 кадра/сек
Цветовое пространство : YUV
Субдискретизация насыщенности : 4:2:0
Битовая глубина : 8 бит
Тип развёртки : Прогрессивная
Бит/(Пиксели*Кадры) : 0.152
Размер потока : 1,23 Гбайт (84%)
Заголовок : #stillet
Библиотека кодирования : x264 core 152 r2851bm ba24899
Настройки программы : cabac=1 / ref=10 / deblock=1:-3:-3 / analyse=0x3:0x113 / me=umh / subme=11 / psy=1 / psy_rd=1.00:0.15 / mixed_ref=1 / me_range=32 / chroma_me=1 / trellis=2 / 8x8dct=1 / cqm=0 / deadzone=21,11 / fast_pskip=0 / chroma_qp_offset=-3 / threads=8 / lookahead_threads=3 / sliced_threads=0 / nr=0 / decimate=0 / interlaced=0 / bluray_compat=0 / constrained_intra=0 / bframes=10 / b_pyramid=2 / b_adapt=2 / b_bias=0 / direct=3 / weightb=1 / open_gop=0 / weightp=2 / keyint=240 / keyint_min=23 / scenecut=40 / intra_refresh=0 / rc=2pass / mbtree=0 / bitrate=2061 / ratetol=1.0 / qcomp=0.60 / qpmin=0 / qpmax=69 / qpstep=4 / cplxblur=20.0 / qblur=0.5 / ip_ratio=1.40 / pb_ratio=1.30 / aq=1:1.00
Язык : English
Default : Да
Forced : Нет

Аудио
Идентификатор : 2
Формат : AC-3
Формат/Информация : Audio Coding 3
Коммерческое название : Dolby Digital
Идентификатор кодека : A_AC3
Продолжительность : 1 ч. 25 м.
Вид битрейта : Постоянный
Битрейт : 384 Кбит/сек
Каналы : 6 каналов
ChannelLayout : L R C LFE Ls Rs
Частота : 48,0 КГц
Частота кадров : 31,250 кадров/сек (1536 SPF)
Метод сжатия : С потерями
Размер потока : 235 Мбайт (16%)
Заголовок : iTunes
Язык : Russian
Default : Да
Forced : Да

Текст
Идентификатор : 3
Формат : UTF-8
Идентификатор кодека : S_TEXT/UTF8
Идентификатор кодека/Информация : UTF-8 Plain Text
Продолжительность : 1 ч. 17 м.
Битрейт : 87 бит/сек
ElementCount : 945
Размер потока : 50,0 Кбайт (0%)
Заголовок : Full
Язык : Russian
Default : Да
Forced : Нет

Меню
00:00:00.000 : en:Chapter 01
00:05:46.805 : en:Chapter 02
00:13:24.637 : en:Chapter 03
00:18:36.324 : en:Chapter 04
00:26:53.987 : en:Chapter 05
00:36:45.620 : en:Chapter 06
00:42:28.796 : en:Chapter 07
00:52:00.534 : en:Chapter 08
00:57:50.467 : en:Chapter 09
01:06:15.180 : en:Chapter 10
01:13:47.506 : en:Chapter 11
01:19:49.785 : en:Chapter 12
Скриншоты
 

Вложения

  • 15,5 KB Просмотры: 0
    Личеров 0
    Сидеров 0
    Файлов 1
    Объем 1,5 GB

Привет!

Мы группа людей которые решили помочь другим в решении их проблем, а так же пользователям с поиском самых свежих и качественных инфопродуктов. За 4 с небольшим месяца мы создали этот форум на который заходят ежедневно тысячи человек и посещаемость постоянно растёт. Мы создали панель лицензирования для защиты PHP скриптов от воровства и SEO панель для мониторинга наших сайтов и выбора верной стратегии их развития. Мы надеемся что то что мы создали пригодится Вам и возможно Вы поможете нам развиваться и совершенствоваться вместе с Вами.

Статистика форума

Темы
405.441
Сообщения
462.402
Пользователи
80.449
Новый пользователь
okop

Приложения форума для iOS и Android


У ркн там нет власти ;)
Приватные разговоры
Помощь Пользователи
    Вы не присоединились ни к одной комнате.