За последнюю неделю опубликовано 62 новых материалов.
Инструкция новичку Путеводитель по форуму Прокси для Telegram Показать подсказки , это бомба!

Скачать D-A-D - A Prayer for the Loud (2019) FLAC бесплатно через торрент

  • Поучаствуй (в качестве покупателя) в любых пяти совместных покупках (кроме завершённых и "Моментальных") и получи группу "Новичок" навсегда -> ссылка на раздел
  • Получай до 480 рублей за каждого приглашенного пользователя!
    представляем Вам очередное расширение партнерской программы, подробности описаны тут -> ссылка
  • 90% материалов доступно к скачиванию после простой регистрации!
    Если же ты хочешь скачивать материалы без требования оставлять отзывы то получи группу "Новичок", 10 способов повышения описаны тут -> ссылка
  • К сожалению количество битых ссылок растет и мы уже не можем их оперативно восстанавливать поэтому просим помощи у каждого нашего пользователя.
    С сегодняшнего дня, за каждую восстановленную ссылку мы заплатим Вам.
    Подробнее тут -> ссылка
  • Перенесем твои заслуги с другого ресурса!
    Мы понимаем как сложно прокачивать аккаунты на форумах, вроде раскачал аккаунт, а тут появляется ресурс в 100 раз круче но тоже с системой прокачки и снова качать аккаунт...
    Предлагаем вам перенести Ваши заслуги на другом подобном ресурсе к нам.
    Подробности описаны тут -> ссылка
  • Вы можете получать по 2.5% с каждой покупки и продажи на маркете! Подробности в теме Партнёрская программа

Torrent_Bot

Торрент-Бот
Бот форума
4 Окт 2016
82
186
20



Исполнитель: D-A-D
Название: A Prayer for the Loud
Страна: Denmark
Жанр: Hard-Rock
Год: 2019
Продолжительность: 00:44:32
Битрейт аудио: Lossless
Формат/Кодек: FLAC
Тип рипа: tracks


01. Burning Star (3:38)
02. A Prayer for the Loud (4:11)
03. Nothing Ever Changes (4:17)
04. The Sky Is Made Of Blues (4:20)
05. The Real Me (4:25)
06. No Doubt About It (3:21)
07. A Drug for the Heart (4:14)
08. Musical Chairs (3:33)
09. Time Is a Train (4:07)
10. Happy Days in Hell (3:41)
11. If the World Just (4:44)
Лог проверки качества
AUDIOCHECKER v2.0 beta (build 457) - by Dester - [email protected]
~~~~~~~~~~~~~~~~~~~~~~~~~~~~~~~~~~

Started at: четверг, 30. 05. 2019. - 16:57.43
11 files found

01 -===- C:UsersUserDownloadsD-A-D - A Prayer for the Loud 2019 FLAC�1 Burning Star.flac
Extracted successfully
Conclusion: this track is CDDA with probability 100%
Tempfile successfully deleted.

02 -===- C:UsersUserDownloadsD-A-D - A Prayer for the Loud 2019 FLAC�2 A Prayer for the Loud.flac
Extracted successfully
Conclusion: this track is CDDA with probability 100%
Tempfile successfully deleted.

03 -===- C:UsersUserDownloadsD-A-D - A Prayer for the Loud 2019 FLAC�3 Nothing Ever Changes.flac
Extracted successfully
Conclusion: this track is CDDA with probability 99%
Tempfile successfully deleted.

04 -===- C:UsersUserDownloadsD-A-D - A Prayer for the Loud 2019 FLAC�4 The Sky Is Made Of Blues.flac
Extracted successfully
Conclusion: this track is CDDA with probability 100%
Tempfile successfully deleted.

05 -===- C:UsersUserDownloadsD-A-D - A Prayer for the Loud 2019 FLAC�5 The Real Me.flac
Extracted successfully
Conclusion: this track is CDDA with probability 100%
Tempfile successfully deleted.

06 -===- C:UsersUserDownloadsD-A-D - A Prayer for the Loud 2019 FLAC�6 No Doubt About It.flac
Extracted successfully
Conclusion: this track is CDDA with probability 100%
Tempfile successfully deleted.

07 -===- C:UsersUserDownloadsD-A-D - A Prayer for the Loud 2019 FLAC�7 A Drug for the Heart.flac
Extracted successfully
Conclusion: this track is CDDA with probability 100%
Tempfile successfully deleted.

08 -===- C:UsersUserDownloadsD-A-D - A Prayer for the Loud 2019 FLAC�8 Musical Chairs.flac
Extracted successfully
Conclusion: this track is CDDA with probability 100%
Tempfile successfully deleted.

09 -===- C:UsersUserDownloadsD-A-D - A Prayer for the Loud 2019 FLAC�9 Time Is a Train.flac
Extracted successfully
Conclusion: this track is CDDA with probability 100%
Tempfile successfully deleted.

10 -===- C:UsersUserDownloadsD-A-D - A Prayer for the Loud 2019 FLAC10 Happy Days in Hell.flac
Extracted successfully
Conclusion: this track is CDDA with probability 100%
Tempfile successfully deleted.

11 -===- C:UsersUserDownloadsD-A-D - A Prayer for the Loud 2019 FLAC11 If the World Just.flac
Extracted successfully
Conclusion: this track is CDDA with probability 100%
Tempfile successfully deleted.


Finished at: четверг, 30. 05. 2019. - 16:59.44 (operation time: 0:02.00)
DR
foobar2000 1.4.4 / Замер динамического диапазона (DR) 1.1.1
Дата отчёта: 2019-05-30 16:57:04

--------------------------------------------------------------------------------
Анализ: D-A-D / A Prayer for the Loud
--------------------------------------------------------------------------------

DR Пики RMS Продолжительность трека
--------------------------------------------------------------------------------
DR6 -0.28 дБ -7.09 дБ 3:38 01-Burning Star
DR5 -0.10 дБ -7.41 дБ 4:11 02-A Prayer for the Loud
DR7 -0.10 дБ -7.67 дБ 4:17 03-Nothing Ever Changes
DR6 -0.14 дБ -7.27 дБ 4:20 04-The Sky Is Made Of Blues
DR6 -0.10 дБ -6.72 дБ 4:25 05-The Real Me
DR6 -0.12 дБ -7.27 дБ 3:21 06-No Doubt About It
DR8 -0.10 дБ -9.84 дБ 4:14 07-A Drug for the Heart
DR6 -0.10 дБ -6.87 дБ 3:33 08-Musical Chairs
DR6 -0.11 дБ -6.95 дБ 4:07 09-Time Is a Train
DR6 -0.10 дБ -6.95 дБ 3:41 10-Happy Days in Hell
DR6 -0.10 дБ -7.32 дБ 4:44 11-If the World Just
--------------------------------------------------------------------------------

Количество треков: 11
Реальные значения DR: DR6

Частота: 44100 Гц
Каналов: 2
Разрядность: 16
Битрейт: 1033 кбит/с
Кодек: FLAC
================================================================================
 

Вложения

  • 14,7 KB Просмотры: 1
    Личеров 0
    Сидеров 0
    Файлов 13
    Объем 334,5 MB

Привет!

Мы группа людей которые решили помочь другим в решении их проблем, а так же пользователям с поиском самых свежих и качественных инфопродуктов. За 4 с небольшим месяца мы создали этот форум на который заходят ежедневно тысячи человек и посещаемость постоянно растёт. Мы создали панель лицензирования для защиты PHP скриптов от воровства и SEO панель для мониторинга наших сайтов и выбора верной стратегии их развития. Мы надеемся что то что мы создали пригодится Вам и возможно Вы поможете нам развиваться и совершенствоваться вместе с Вами.

Статистика форума

Темы
412.160
Сообщения
471.189
Пользователи
91.650
Новый пользователь
dimka33333

Приложения форума для iOS и Android


У ркн там нет власти ;)
Приватные разговоры
Помощь Пользователи
    Вы не присоединились ни к одной комнате.