За последнюю неделю опубликовано 89 новых материалов.
Инструкция новичку Путеводитель по форуму Прокси для Telegram Показать подсказки , это бомба!

Скачать Cybermattik - Round & Round [Single] (1995) FLAC бесплатно через торрент

  • Поучаствуй (в качестве покупателя) в любых пяти совместных покупках (кроме завершённых и "Моментальных") и получи группу "Новичок" навсегда -> ссылка на раздел
  • Получай до 480 рублей за каждого приглашенного пользователя!
    представляем Вам очередное расширение партнерской программы, подробности описаны тут -> ссылка
  • 90% материалов доступно к скачиванию после простой регистрации!
    Если же ты хочешь скачивать материалы без требования оставлять отзывы то получи группу "Новичок", 10 способов повышения описаны тут -> ссылка
  • К сожалению количество битых ссылок растет и мы уже не можем их оперативно восстанавливать поэтому просим помощи у каждого нашего пользователя.
    С сегодняшнего дня, за каждую восстановленную ссылку мы заплатим Вам.
    Подробнее тут -> ссылка
  • Перенесем твои заслуги с другого ресурса!
    Мы понимаем как сложно прокачивать аккаунты на форумах, вроде раскачал аккаунт, а тут появляется ресурс в 100 раз круче но тоже с системой прокачки и снова качать аккаунт...
    Предлагаем вам перенести Ваши заслуги на другом подобном ресурсе к нам.
    Подробности описаны тут -> ссылка
  • Вы можете получать по 2.5% с каждой покупки и продажи на маркете! Подробности в теме Партнёрская программа

Torrent_Bot

Торрент-Бот
Бот форума
4 Окт 2016
102
152
20



Название: Round & Round (Single)
Исполнитель: Cybermattik
Год: 1995
Жанр: Euro House
Страна: NETHERLANDS

Продолжительность: 00:25:54
Формат/Кодек: Flac
Битрейт аудио: Lossless

Официальный сайт

Трек-лист
01 Round & Round (Radio Mix)
02 Round & Round (Club Mix)
03 I Can Feel The Beat
04 Round & Round (Trance Mix)
05 People Are Truly One
Лог проверки качества
DON'T MODIFY THIS FILE

-----------------------

PERFORMER: auCDtect Task Manager, ver. 1.6.0 RC1 build 1.6.0.1
Copyright (c) 2008-2010 y-soft. All rights reserved
http://y-soft.org

ANALYZER: auCDtect: CD records authenticity detector, version 0.8.2
Copyright (c) 2004 Oleg Berngardt. All rights reserved.
Copyright (c) 2004 Alexander Djourik. All rights reserved.

FILE: 05 People Are Truly One.flac
Size: 38312933 Hash: 5D90203CACF0911B52A45D25703F3679 Accuracy: -m0
Conclusion: CDDA 100%
Signature: E581D1DE4358BA591A01C1C6F18F0CF834D78A71
FILE: 04 I Can Feel The Beat (Radio Mix).flac
Size: 43133663 Hash: C54565D6DAA14541E15F97FB194F4DE5 Accuracy: -m0
Conclusion: CDDA 100%
Signature: 8886EDFD600ABCDCA5E6D8C1ACF5D9A2B2E1BDE2
FILE: 03 Round & Round (Trance Mix).flac
Size: 30664375 Hash: 79F55D5DF88DFE135F3BD5BC30A73C42 Accuracy: -m0
Conclusion: CDDA 100%
Signature: 32497408F68E4FCC1C33BE6DA54445F93C062E10
FILE: 02 Round & Round (Club Mix).flac
Size: 46445370 Hash: D1D4CDCE0871C1A81D4F23285B42BB12 Accuracy: -m0
Conclusion: CDDA 100%
Signature: 50B666631D73FAA8959C9627411636708FC09A55
FILE: 01 Round & Round (Radio Mix).flac
Size: 31125123 Hash: F1DC72CC6C4F2661B69957BF0D16E1AE Accuracy: -m0
Conclusion: CDDA 100%
Signature: 4DC990355A1BB52486907A623A0C7FDC4305B554
Замер динамического диапазона:
----------------------------------------------------------------------------------------------
Analyzed folder: D:ВидеоклипыconverterCybermattik - Round & Round (Single) 1995 Flac (tracks)
----------------------------------------------------------------------------------------------
DR Peak RMS Filename
----------------------------------------------------------------------------------------------

DR11 -0.00 dB -12.41 dB 01 Round & Round (Radio Mix).wav
DR11 -0.00 dB -12.06 dB 02 Round & Round (Club Mix).wav
DR12 -0.00 dB -13.94 dB 03 Round & Round (Trance Mix).wav
DR12 -0.00 dB -13.45 dB 04 I Can Feel The Beat (Radio Mix).wav
DR4 -0.20 dB -5.13 dB 05 People Are Truly One.wav
----------------------------------------------------------------------------------------------

Number of files: 5
Official DR value: DR10

==============================================================================================
 

Вложения

  • 15,5 KB Просмотры: 0
    Личеров 0
    Сидеров 0
    Файлов 6
    Объем 181,9 MB

Привет!

Мы группа людей которые решили помочь другим в решении их проблем, а так же пользователям с поиском самых свежих и качественных инфопродуктов. За 4 с небольшим месяца мы создали этот форум на который заходят ежедневно тысячи человек и посещаемость постоянно растёт. Мы создали панель лицензирования для защиты PHP скриптов от воровства и SEO панель для мониторинга наших сайтов и выбора верной стратегии их развития. Мы надеемся что то что мы создали пригодится Вам и возможно Вы поможете нам развиваться и совершенствоваться вместе с Вами.

Статистика форума

Темы
404.560
Сообщения
461.359
Пользователи
80.159
Новый пользователь
оляляс

Приложения форума для iOS и Android


У ркн там нет власти ;)
Приватные разговоры
Помощь Пользователи
    Вы не присоединились ни к одной комнате.