За последнюю неделю опубликовано 102 новых материалов.
Инструкция новичку Путеводитель по форуму Прокси для Telegram Показать подсказки , это бомба!

Скачать Цветы лиловые полей / The Color Purple (1985) BDRip 1080p от NNNB | P, P2, A бесплатно через торрент

  • Поучаствуй (в качестве покупателя) в любых пяти совместных покупках (кроме завершённых и "Моментальных") и получи группу "Новичок" навсегда -> ссылка на раздел
  • Получай до 480 рублей за каждого приглашенного пользователя!
    представляем Вам очередное расширение партнерской программы, подробности описаны тут -> ссылка
  • 90% материалов доступно к скачиванию после простой регистрации!
    Если же ты хочешь скачивать материалы без требования оставлять отзывы то получи группу "Новичок", 10 способов повышения описаны тут -> ссылка
  • К сожалению количество битых ссылок растет и мы уже не можем их оперативно восстанавливать поэтому просим помощи у каждого нашего пользователя.
    С сегодняшнего дня, за каждую восстановленную ссылку мы заплатим Вам.
    Подробнее тут -> ссылка
  • Перенесем твои заслуги с другого ресурса!
    Мы понимаем как сложно прокачивать аккаунты на форумах, вроде раскачал аккаунт, а тут появляется ресурс в 100 раз круче но тоже с системой прокачки и снова качать аккаунт...
    Предлагаем вам перенести Ваши заслуги на другом подобном ресурсе к нам.
    Подробности описаны тут -> ссылка
  • Вы можете получать по 2.5% с каждой покупки и продажи на маркете! Подробности в теме Партнёрская программа
Если Вы не хотите скачивать, Вы всегда можетепосмотретьонлайн, просто нажмите кнопку ниже :

Открыть плеер

Torrent_Bot

Торрент-Бот
Бот форума
4 Окт 2016
102
152
20


Информацияофильме
Русское название: Цветы лиловые полей
Оригинальное название: The Color Purple
Год выхода: 1985
Жанр: драма
Режиссер: Стивен Спилберг
Выпущено: США
Продолжительность: 02:33:47
Перевод: Профессиональный (двухголосый закадровый), Профессиональный (многоголосый закадровый), Авторский (одноголосый закадровый)
В ролях: Дэнни Гловер, Вупи Голдберг, Маргарет Эйвери, Опра Уинфри, Уиллард Э. Паг, Акосуа Бусиа, Desreta Jackson, Адольф Цезар, Рей Дон Чон, Дэна Айви


Сюжетфильма
Действие фильма происходит в начале XX века в небольшом городке в штате Джорджия, где еще сильны вековые традиции прежнего уклада южных штатов. В центре картины — жизнь героини Силии, чье стремление найти себя в мире, закрытом для нее, превращается в триумф жестокости, которую преодолела любовь, и боли, которую затмила радость.
В первый раз мы встречаемся с Силией, когда ей 14 лет, и она беременна… от своего отца. Дальнейшее действие картины повествует о сложной судьбе героини, которая на своем жизненном пути познала много бед и лишений, прежде чем смогла обрести независимость.


Файл
Качество: BDRip 1080p (исходник Retail Spanish Blu-ray)
Формат: MKV
Видео: 1920x1080, 11927 Кбит/сек, 23,976 кадр/сек, AVC, x264, High@L4.1, 2.40:1, 0.240 Бит/[Пиксели*Кадры]
Аудио 1: AC-3, 192 Кбит/сек, 2 канала(ов), 48,0 КГц - Двухголосый закадровый, НТВ / Русский
Аудио 2: AC-3, 192 Кбит/сек, 2 канала(ов), 48,0 КГц - Многоголосый закадровый, НТВ+ / Русский
Аудио 3: AC-3, 640 Кбит/сек, 6 канала(ов), 48,0 КГц - Одноголосый закадровый, Ю. Сербин / Русский
Аудио 4: AC-3, 640 Кбит/сек, 6 канала(ов), 48,0 КГц - Одноголосый закадровый, Г. Либергал / Русский
Аудио 5: AC-3, 192 Кбит/сек, 2 канала(ов), 48,0 КГц - Одноголосый закадровый, А. Михалев / Русский
Аудио 6: AC-3, 640 Кбит/сек, 6 канала(ов), 48,0 КГц - Оригинал / Английский
Субтитры: Русские | Полные [envy], Английские | Полные
Форсированные субтитры: Русские [envy]
Чаптеры (Главы): Есть



Автор Рипа: Группа: Звуковые дорожки отдельно:


Скриншоты
MediaInfo
Format : Matroska
Format version : Version 2
File size : 15.5 GiB
Duration : 2h 33mn
Overall bit rate : 14.4 Mbps
Movie name : The Color Purple.(1985).BDRip.1080p.[envy]
Encoded date : UTC 2016-09-02 13:57:19
Writing application : mkvmerge v5.8.0 ('No Sleep / Pillow') built on Sep 2 2012 15:37:04
Writing library : libebml v1.2.3 + libmatroska v1.3.0

Video
ID : 1
Format : AVC
Format/Info : Advanced Video Codec
Format profile : High@L4.1
Format settings, CABAC : Yes
Format settings, ReFrames : 4 frames
Codec ID : V_MPEG4/ISO/AVC
Duration : 2h 33mn
Bit rate : 11.9 Mbps
Width : 1 920 pixels
Height : 1 080 pixels
Display aspect ratio : 16:9
Frame rate mode : Constant
Frame rate : 23.976 (24000/1001) fps
Color space : YUV
Chroma subsampling : 4:2:0
Bit depth : 8 bits
Scan type : Progressive
Bits/(Pixel*Frame) : 0.240
Stream size : 12.5 GiB (81%)
Title : The Color Purple.(1985).BDRip.1080p.[envy]
Writing library : x264 core 148 r2705 3f5ed56
Encoding settings : cabac=1 / ref=4 / deblock=1:-3:-3 / analyse=0x3:0x113 / me=umh / subme=11 / psy=1 / psy_rd=1.00:0.00 / mixed_ref=1 / me_range=32 / chroma_me=1 / trellis=2 / 8x8dct=1 / cqm=0 / deadzone=21,11 / fast_pskip=0 / chroma_qp_offset=-2 / threads=12 / lookahead_threads=1 / sliced_threads=0 / nr=0 / decimate=1 / interlaced=0 / bluray_compat=0 / constrained_intra=0 / bframes=5 / b_pyramid=2 / b_adapt=2 / b_bias=0 / direct=3 / weightb=1 / open_gop=0 / weightp=2 / keyint=240 / keyint_min=23 / scenecut=40 / intra_refresh=0 / rc=2pass / mbtree=0 / bitrate=11927 / ratetol=2.0 / qcomp=0.60 / qpmin=0 / qpmax=69 / qpstep=4 / cplxblur=20.0 / qblur=0.5 / ip_ratio=1.40 / pb_ratio=1.30 / aq=2:0.90
Language : English
Default : Yes
Forced : No

Audio #1
ID : 2
Format : AC-3
Format/Info : Audio Coding 3
Mode extension : CM (complete main)
Format settings, Endianness : Big
Codec ID : A_AC3
Duration : 2h 33mn
Bit rate mode : Constant
Bit rate : 192 Kbps
Channel(s) : 2 channels
Channel positions : Front: L R
Sampling rate : 48.0 KHz
Frame rate : 31.250 fps (1536 spf)
Compression mode : Lossy
Stream size : 211 MiB (1%)
Title : DVO НТВ
Language : Russian
Default : Yes
Forced : No

Audio #2
ID : 3
Format : AC-3
Format/Info : Audio Coding 3
Mode extension : CM (complete main)
Format settings, Endianness : Big
Codec ID : A_AC3
Duration : 2h 33mn
Bit rate mode : Constant
Bit rate : 192 Kbps
Channel(s) : 2 channels
Channel positions : Front: L R
Sampling rate : 48.0 KHz
Frame rate : 31.250 fps (1536 spf)
Compression mode : Lossy
Stream size : 211 MiB (1%)
Title : MVO НТВ+
Language : Russian
Default : No
Forced : No

Audio #3
ID : 4
Format : AC-3
Format/Info : Audio Coding 3
Mode extension : CM (complete main)
Format settings, Endianness : Big
Codec ID : A_AC3
Duration : 2h 33mn
Bit rate mode : Constant
Bit rate : 640 Kbps
Channel(s) : 6 channels
Channel positions : Front: L C R, Side: L R, LFE
Sampling rate : 48.0 KHz
Frame rate : 31.250 fps (1536 spf)
Compression mode : Lossy
Stream size : 704 MiB (4%)
Title : AVO Сербин
Language : Russian
Default : No
Forced : No

Audio #4
ID : 5
Format : AC-3
Format/Info : Audio Coding 3
Mode extension : CM (complete main)
Format settings, Endianness : Big
Codec ID : A_AC3
Duration : 2h 33mn
Bit rate mode : Constant
Bit rate : 640 Kbps
Channel(s) : 6 channels
Channel positions : Front: L C R, Side: L R, LFE
Sampling rate : 48.0 KHz
Frame rate : 31.250 fps (1536 spf)
Compression mode : Lossy
Stream size : 704 MiB (4%)
Title : AVO Либергал
Language : Russian
Default : No
Forced : No

Audio #5
ID : 6
Format : AC-3
Format/Info : Audio Coding 3
Mode extension : CM (complete main)
Format settings, Endianness : Big
Codec ID : A_AC3
Duration : 2h 33mn
Bit rate mode : Constant
Bit rate : 192 Kbps
Channel(s) : 2 channels
Channel positions : Front: L R
Sampling rate : 48.0 KHz
Frame rate : 31.250 fps (1536 spf)
Compression mode : Lossy
Stream size : 211 MiB (1%)
Title : AVO Михалев
Language : Russian
Default : No
Forced : No

Audio #6
ID : 7
Format : AC-3
Format/Info : Audio Coding 3
Mode extension : CM (complete main)
Format settings, Endianness : Big
Codec ID : A_AC3
Duration : 2h 33mn
Bit rate mode : Constant
Bit rate : 640 Kbps
Channel(s) : 6 channels
Channel positions : Front: L C R, Side: L R, LFE
Sampling rate : 48.0 KHz
Frame rate : 31.250 fps (1536 spf)
Compression mode : Lossy
Stream size : 704 MiB (4%)
Default : No
Forced : No

Text #1
ID : 8
Format : UTF-8
Codec ID : S_TEXT/UTF8
Codec ID/Info : UTF-8 Plain Text
Title : Rus forced [envy]
Language : Russian
Default : Yes
Forced : Yes

Text #2
ID : 9
Format : UTF-8
Codec ID : S_TEXT/UTF8
Codec ID/Info : UTF-8 Plain Text
Title : Rus full [envy]
Language : Russian
Default : No
Forced : No

Text #3
ID : 10
Format : UTF-8
Codec ID : S_TEXT/UTF8
Codec ID/Info : UTF-8 Plain Text
Title : Eng full
Language : English
Default : No
Forced : No

Menu
00:00:00.000 : :Chapter 01
00:03:22.076 : :Chapter 02
00:04:59.631 : :Chapter 03
00:07:44.172 : :Chapter 04
00:13:15.669 : :Chapter 05
00:16:30.071 : :Chapter 06
00:20:24.640 : :Chapter 07
00:23:10.222 : :Chapter 08
00:28:30.542 : :Chapter 09
00:32:31.407 : :Chapter 10
00:36:54.128 : :Chapter 11
00:41:00.123 : :Chapter 12
00:47:21.672 : :Chapter 13
00:50:41.204 : :Chapter 14
00:54:44.656 : :Chapter 15
00:57:14.514 : :Chapter 16
01:01:09.749 : :Chapter 17
01:05:15.119 : :Chapter 18
01:08:06.081 : :Chapter 19
01:12:17.499 : :Chapter 20
01:18:50.308 : :Chapter 21
01:21:11.157 : :Chapter 22
01:23:51.943 : :Chapter 23
01:26:47.744 : :Chapter 24
01:30:26.295 : :Chapter 25
01:36:13.934 : :Chapter 26
01:39:24.625 : :Chapter 27
01:45:22.441 : :Chapter 28
01:48:34.506 : :Chapter 29
01:54:16.140 : :Chapter 30
01:58:12.919 : :Chapter 31
02:03:26.941 : :Chapter 32
02:06:50.436 : :Chapter 33
02:08:42.172 : :Chapter 34
02:13:10.691 : :Chapter 35
02:15:37.879 : :Chapter 36
02:17:58.770 : :Chapter 37
02:22:57.110 : :Chapter 38
02:28:50.379 : :Chapter 39
 

Вложения

  • 78,4 KB Просмотры: 1
    Личеров 0
    Сидеров 0
    Файлов 1
    Объем 15,5 GB

Привет!

Мы группа людей которые решили помочь другим в решении их проблем, а так же пользователям с поиском самых свежих и качественных инфопродуктов. За 4 с небольшим месяца мы создали этот форум на который заходят ежедневно тысячи человек и посещаемость постоянно растёт. Мы создали панель лицензирования для защиты PHP скриптов от воровства и SEO панель для мониторинга наших сайтов и выбора верной стратегии их развития. Мы надеемся что то что мы создали пригодится Вам и возможно Вы поможете нам развиваться и совершенствоваться вместе с Вами.

Статистика форума

Темы
404.573
Сообщения
461.396
Пользователи
80.202
Новый пользователь
Алексей1975

Приложения форума для iOS и Android


У ркн там нет власти ;)
Приватные разговоры
Помощь Пользователи
    Вы не присоединились ни к одной комнате.