За последнюю неделю опубликовано 65 новых материалов.
Инструкция новичку Путеводитель по форуму Прокси для Telegram Показать подсказки , это бомба!

Скачать Чужой 4: Воскрешение / Alien: Resurrection (1997) WEB-DLRip-AVC от ExKinoRay | D | Open Matte бесплатно через торрент

  • Поучаствуй (в качестве покупателя) в любых пяти совместных покупках (кроме завершённых и "Моментальных") и получи группу "Новичок" навсегда -> ссылка на раздел
  • Получай до 480 рублей за каждого приглашенного пользователя!
    представляем Вам очередное расширение партнерской программы, подробности описаны тут -> ссылка
  • 90% материалов доступно к скачиванию после простой регистрации!
    Если же ты хочешь скачивать материалы без требования оставлять отзывы то получи группу "Новичок", 10 способов повышения описаны тут -> ссылка
  • К сожалению количество битых ссылок растет и мы уже не можем их оперативно восстанавливать поэтому просим помощи у каждого нашего пользователя.
    С сегодняшнего дня, за каждую восстановленную ссылку мы заплатим Вам.
    Подробнее тут -> ссылка
  • Перенесем твои заслуги с другого ресурса!
    Мы понимаем как сложно прокачивать аккаунты на форумах, вроде раскачал аккаунт, а тут появляется ресурс в 100 раз круче но тоже с системой прокачки и снова качать аккаунт...
    Предлагаем вам перенести Ваши заслуги на другом подобном ресурсе к нам.
    Подробности описаны тут -> ссылка
  • Вы можете получать по 2.5% с каждой покупки и продажи на маркете! Подробности в теме Партнёрская программа
Если Вы не хотите скачивать, Вы всегда можетепосмотретьонлайн, просто нажмите кнопку ниже :

Открыть плеер

Torrent_Bot

Торрент-Бот
Бот форума
4 Окт 2016
92
160
20



Информация о фильме
Название: Чужой 4: Воскрешение
Оригинальное название: Alien: Resurrection
Год выхода: 1997
Жанр: Ужасы, фантастика, боевик, триллер
Режиссер: Жан-Пьер Жёне / Jean-Pierre Jeunet
В ролях: Сигурни Уивер, Вайнона Райдер, Доминик Пинон, Рон Перлман, Гари Дурдан, Майкл Уинкотт, Ким Флауэрс, Дэн Хедайя, Дж.Е. Фриман, Брэд Дуриф, Рэймонд Круз, Лиленд Орсер, Кэролин Кэмпбелл, Марлен Буш, Дэвид Сент-Джеймс, Родни Митчелл, Роберт Фэлтиско, Дэвид Роу, Гэрретт Хауз, Род Деймер, Марк Мэнсфилд, Дэниэл Рэймонт, Крис Д'Аннунцио, Роберт Бэстенс, Рико Буэно, Алекс Лорре, Рональд Реймссар, Николь Феллоуз, Том Вудрафф-мл.

О фильме:
Спустя 200 лет со дня гибели лейтенанта Рипли, военные ученые решают сделать ее клон, чтобы заполучить детеныша инопланетянина. Кровь Рипли несет в себе образцы ДНК «чужих», и ученые хотят получить от нее потомство, которое станет совершенным оружием всех времен. Но Рипли не может допустить попадания всех этих новых монстров на нашу планету и старается всех их убить.




Страна: США
Студия: Brandywine Productions, Twentieth Century-Fox Film Corporation
Продолжительность: 01:48:51
Перевод: Профессиональный (полное дублирование)

Файл
Формат: MKV
Качество: WEB-DLRip-AVC
Видео: MPEG-4 AVC, 696x392, - 880 Кбит/с
Аудио: AAC-HE, 2 ch, - 76 Кбит/с
Субтитры: Русские, английские


MI
Общее
Уникальный идентификатор : 187123747747006819169161750905045244220 (0x8CC6B91093AB553E10635C898E35D93C)
Полное имя : D:MOVIESChuzhoi.4.Voskrishenie.1997.WEB-DLRip-AVC.ExKinoRay.mkv
Формат : Matroska
Версия формата : Version 4
Размер файла : 746 Мбайт
Продолжительность : 1 ч. 48 м.
Общий поток : 957 Кбит/сек
Дата кодирования : UTC 2020-05-18 13:54:46
Программа кодирования : mkvmerge v45.0.0 ('Heaven in Pennies') 64-bit
Библиотека кодирования : libebml v1.3.10 + libmatroska v1.5.2

Видео
Идентификатор : 1
Формат : AVC
Формат/Информация : Advanced Video Codec
Профиль формата : [email protected]
Настройки формата : CABAC / 11 Ref Frames
Параметр CABAC формата : Да
Параметр RefFrames формата : 11 кадров
Идентификатор кодека : V_MPEG4/ISO/AVC
Продолжительность : 1 ч. 48 м.
Битрейт : 880 Кбит/сек
Ширина : 696 пикселей
Высота : 392 пикселя
Соотношение сторон : 16:9
Режим частоты кадров : Постоянный
Частота кадров : 23,976 (24000/1001) кадра/сек
Цветовое пространство : YUV
Субдискретизация насыщенности : 4:2:0
Битовая глубина : 8 бит
Тип развёртки : Прогрессивная
Бит/(Пиксели*Кадры) : 0.135
Размер потока : 685 Мбайт (92%)
Библиотека кодирования : x264 core 159 r2991 1771b55
Настройки программы : cabac=1 / ref=11 / deblock=1:-3:-3 / analyse=0x3:0x133 / me=umh / subme=10 / psy=1 / psy_rd=1.05:0.15 / mixed_ref=1 / me_range=32 / chroma_me=1 / trellis=2 / 8x8dct=1 / cqm=0 / deadzone=21,11 / fast_pskip=0 / chroma_qp_offset=-3 / threads=6 / lookahead_threads=1 / sliced_threads=0 / nr=0 / decimate=0 / interlaced=0 / bluray_compat=0 / constrained_intra=0 / bframes=12 / b_pyramid=2 / b_adapt=2 / b_bias=0 / direct=3 / weightb=1 / open_gop=0 / weightp=2 / keyint=240 / keyint_min=23 / scenecut=40 / intra_refresh=0 / rc_lookahead=40 / rc=2pass / mbtree=1 / bitrate=880 / ratetol=1.0 / qcomp=0.60 / qpmin=0 / qpmax=69 / qpstep=4 / cplxblur=20.0 / qblur=0.5 / ip_ratio=1.40 / aq=3:1.00
Default : Да
Forced : Нет
Цветовой диапазон : Limited
Основные цвета : BT.709
Характеристики трансфера : BT.709
Коэффициенты матрицы : BT.709

Аудио
Идентификатор : 2
Формат : AAC LC SBR
Формат/Информация : Advanced Audio Codec Low Complexity with Spectral Band Replication
Коммерческое название : HE-AAC
Настройки формата : Explicit
Идентификатор кодека : A_AAC-2
Продолжительность : 1 ч. 48 м.
Битрейт : 76,0 Кбит/сек
Каналы : 2 канала
Channel layout : L R
Частота : 44,1 КГц
Частота кадров : 21,533 кадра/сек (2048 SPF)
Метод сжатия : С потерями
Задержка видео : 33 мс.
Размер потока : 59,2 Мбайт (8%)
Язык : Russian
Default : Да
Forced : Нет

Текст #1
Идентификатор : 3
Формат : UTF-8
Идентификатор кодека : S_TEXT/UTF8
Идентификатор кодека/Информация : UTF-8 Plain Text
Продолжительность : 1 ч. 47 м.
Битрейт : 46 бит/сек
Count of elements : 783
Размер потока : 36,6 Кбайт (0%)
Язык : Russian
Default : Нет
Forced : Нет

Текст #2
Идентификатор : 4
Формат : UTF-8
Идентификатор кодека : S_TEXT/UTF8
Идентификатор кодека/Информация : UTF-8 Plain Text
Продолжительность : 1 ч. 45 м.
Битрейт : 32 бит/сек
Count of elements : 759
Размер потока : 25,4 Кбайт (0%)
Язык : English
Default : Нет
Forced : Нет

Текст #3
Идентификатор : 5
Формат : UTF-8
Идентификатор кодека : S_TEXT/UTF8
Идентификатор кодека/Информация : UTF-8 Plain Text
Продолжительность : 1 ч. 48 м.
Битрейт : 127 бит/сек
Count of elements : 1301
Размер потока : 102 Кбайт (0%)
Заголовок : Commentary
Язык : Russian
Default : Нет
Forced : Нет

Меню
00:00:10.093 : en:Main Titles
00:02:34.801 : en:USM Auriga
00:05:24.533 : en:Born Again
00:07:43.673 : en:An Unexpected Benefit
00:10:33.803 : en:Memories
00:13:15.628 : en:The Cargo Arrives
00:18:13.719 : en:The Deal
00:21:56.983 : en:A Little One-on-One
00:25:45.795 : en:Today's Lesson
00:28:46.143 : en:Snooping Around
00:32:53.681 : en:Caught
00:35:03.769 : en:The Escape
00:38:13.709 : en:"Evacuation"
00:42:07.692 : en:"Evacuation Incomplete"
00:49:12.409 : en:Finding a Way Out
00:52:41.993 : en:A Waste of Ammo
00:58:38.683 : en:"He's Got One Inside of Him"
01:02:53.646 : en:A Trap
01:14:03.607 : en:Call's Secret
01:16:33.757 : en:Connecting at the Chapel
01:21:23.379 : en:Into the Nest
01:24:48.126 : en:Sharing the Monster
01:27:17.483 : en:A New Baby
01:32:00.349 : en:Racing to the Betty
01:33:47.499 : en:Closing the Hatch
01:36:51.808 : en:Under Pressure
01:40:54.258 : en:"I'm a Stranger Here Myself"
01:42:35.526 : en:End Titles
Скриншоты

 

Вложения

  • 15,7 KB Просмотры: 0
    Личеров 0
    Сидеров 0
    Файлов 1
    Объем 745,7 MB

Привет!

Мы группа людей которые решили помочь другим в решении их проблем, а так же пользователям с поиском самых свежих и качественных инфопродуктов. За 4 с небольшим месяца мы создали этот форум на который заходят ежедневно тысячи человек и посещаемость постоянно растёт. Мы создали панель лицензирования для защиты PHP скриптов от воровства и SEO панель для мониторинга наших сайтов и выбора верной стратегии их развития. Мы надеемся что то что мы создали пригодится Вам и возможно Вы поможете нам развиваться и совершенствоваться вместе с Вами.

Статистика форума

Темы
406.658
Сообщения
465.103
Пользователи
84.688
Новый пользователь
Knight59136

Приложения форума для iOS и Android


У ркн там нет власти ;)
Приватные разговоры
Помощь Пользователи
    Вы не присоединились ни к одной комнате.