За последнюю неделю опубликовано 47 новых материалов.
Инструкция новичку Путеводитель по форуму Прокси для Telegram Показать подсказки , это бомба!

Скачать Чужие / Ужас из песка / The Dustwalker (2019) BDRip 720p от SuperMin | iTunes бесплатно через торрент

  • Поучаствуй (в качестве покупателя) в любых пяти совместных покупках (кроме завершённых и "Моментальных") и получи группу "Новичок" навсегда -> ссылка на раздел
  • Получай до 480 рублей за каждого приглашенного пользователя!
    представляем Вам очередное расширение партнерской программы, подробности описаны тут -> ссылка
  • 90% материалов доступно к скачиванию после простой регистрации!
    Если же ты хочешь скачивать материалы без требования оставлять отзывы то получи группу "Новичок", 10 способов повышения описаны тут -> ссылка
  • К сожалению количество битых ссылок растет и мы уже не можем их оперативно восстанавливать поэтому просим помощи у каждого нашего пользователя.
    С сегодняшнего дня, за каждую восстановленную ссылку мы заплатим Вам.
    Подробнее тут -> ссылка
  • Перенесем твои заслуги с другого ресурса!
    Мы понимаем как сложно прокачивать аккаунты на форумах, вроде раскачал аккаунт, а тут появляется ресурс в 100 раз круче но тоже с системой прокачки и снова качать аккаунт...
    Предлагаем вам перенести Ваши заслуги на другом подобном ресурсе к нам.
    Подробности описаны тут -> ссылка
  • Вы можете получать по 2.5% с каждой покупки и продажи на маркете! Подробности в теме Партнёрская программа
Если Вы не хотите скачивать, Вы всегда можетепосмотретьонлайн, просто нажмите кнопку ниже :

Открыть плеер

Torrent_Bot

Торрент-Бот
Бот форума
4 Окт 2016
93
160
20



Информация о фильме
Название: Чужие / Ужас из песка
Оригинальное название: The Dustwalker
Год выхода: 2019
Жанр: Фантастика, триллер, драма
Режиссер: Сандра Скиберрас
В ролях: Джолин Андерсон, Стэф Доусон, Талина Навиеде, Гарри Гринвуд, Райан Аллен, Хлоя Браун, Нина Дизли, Сэм Дадли, Руби Дункан, Кассандра Маграт


Где-то посреди австралийского буша падает метеорит. Это событие остается незамеченным для жителей ближайшего городка – малонаселенной глубинки, оторванной от большого мира. Но последствия аномалии не заставляют себя ждать. Один за другим местные жители теряют рассудок и становятся опасными даже для близких. Остановить эпидемию пытается храбрая сотрудница скромной провинциальной полиции Джоанна Шарп. Она собиралась уехать из родного городка в Сидней, но ее планы нарушает начало локального апокалипсиса, способного перерасти в мировую катастрофу. Джоанне, ее команде и уцелевшим жителям города приходится выступать против пришельцев-паразитов, захватывающих тело и разум людей.





Страна: Австралия
Студия: Three Feet Of Film,, Head Gear Films, Kreo Films FZ
Продолжительность: 01:34:51
Перевод: Профессиональный многоголосый iTunes

Файл
Кодек: H.264
Качество: BDRip 720p
Видео: 1280х538 (2.40:1), 3435 Kbps, 23.976 fps
Звук: Русский (AC-3, 6ch, 384 kbps)
Английский (AC-3, 6ch, 640 kbps)
Субтитры: английские





MI
x264 [info]: profile High, level 4.1, 4:2:0, 8-bit
x264 [info]: frame I:1099 Avg QP:14.61 size:105402
x264 [info]: frame P:28424 Avg QP:15.71 size: 39094
x264 [info]: frame B:106931 Avg QP:18.00 size: 11375
x264 [info]: consecutive B-frames: 1.8% 1.9% 5.7% 14.9% 25.1% 44.5% 4.2% 1.0% 0.5% 0.3% 0.2%

General
Unique ID : 148754261116079192693740264894053959500 (0x6FE9075145AF69AD988EDD2FEA7B474C)
Complete name : F:ФИЛЬМЫРУТОРЧужие (Ужас из песка). BDRip 720p.mkv
Format : Matroska
Format version : Version 4
File size : 2.96 GiB
Duration : 1 h 34 min
Overall bit rate : 4 461 kb/s
Movie name : Чужие / Ужас из песка / The Dustwalker (2019) - #LORDKILL#
Encoded date : UTC 2020-06-17 02:38:33
Writing application : mkvmerge v32.0.0 ('Astral Progressions') 64-bit
Writing library : libebml v1.3.7 + libmatroska v1.5.0

Video
ID : 1
Format : AVC
Format/Info : Advanced Video Codec
Format profile : [email protected]
Format settings : CABAC / 12 Ref Frames
Format settings, CABAC : Yes
Format settings, Reference : 12 frames
Codec ID : V_MPEG4/ISO/AVC
Duration : 1 h 34 min
Bit rate : 3 435 kb/s
Width : 1 280 pixels
Height : 538 pixels
Display aspect ratio : 2.40:1
Frame rate mode : Constant
Frame rate : 23.976 (24000/1001) FPS
Color space : YUV
Chroma subsampling : 4:2:0
Bit depth : 8 bits
Scan type : Progressive
Bits/(Pixel*Frame) : 0.208
Stream size : 2.28 GiB (77%)
Writing library : x264 core 159 r2991 1771b55
Encoding settings : cabac=1 / ref=12 / deblock=1:-2:-2 / analyse=0x3:0x133 / me=umh / subme=10 / psy=1 / psy_rd=1.00:0.20 / mixed_ref=1 / me_range=32 / chroma_me=1 / trellis=2 / 8x8dct=1 / cqm=0 / deadzone=21,11 / fast_pskip=0 / chroma_qp_offset=-3 / threads=12 / lookahead_threads=3 / sliced_threads=0 / nr=0 / decimate=1 / interlaced=0 / bluray_compat=0 / constrained_intra=0 / bframes=10 / b_pyramid=2 / b_adapt=2 / b_bias=0 / direct=1 / weightb=1 / open_gop=0 / weightp=2 / keyint=240 / keyint_min=23 / scenecut=40 / intra_refresh=0 / rc=crf / mbtree=0 / crf=18.0 / qcomp=0.60 / qpmin=0 / qpmax=69 / qpstep=4 / ip_ratio=1.40 / pb_ratio=1.30 / aq=1:1.00
Default : Yes
Forced : No

Audio #1
ID : 2
Format : AC-3
Format/Info : Audio Coding 3
Commercial name : Dolby Digital
Codec ID : A_AC3
Duration : 1 h 34 min
Bit rate mode : Constant
Bit rate : 384 kb/s
Channel(s) : 6 channels
Channel layout : L R C LFE Ls Rs
Sampling rate : 48.0 kHz
Frame rate : 31.250 FPS (1536 SPF)
Compression mode : Lossy
Stream size : 261 MiB (9%)
Language : Russian
Service kind : Complete Main
Default : Yes
Forced : No

Audio #2
ID : 3
Format : AC-3
Format/Info : Audio Coding 3
Commercial name : Dolby Digital
Codec ID : A_AC3
Duration : 1 h 34 min
Bit rate mode : Constant
Bit rate : 640 kb/s
Channel(s) : 6 channels
Channel layout : L R C LFE Ls Rs
Sampling rate : 48.0 kHz
Frame rate : 31.250 FPS (1536 SPF)
Compression mode : Lossy
Stream size : 434 MiB (14%)
Language : English
Service kind : Complete Main
Default : No
Forced : No

Text
ID : 4
Format : UTF-8
Codec ID : S_TEXT/UTF8
Codec ID/Info : UTF-8 Plain Text
Duration : 1 h 31 min
Bit rate : 37 b/s
Count of elements : 854
Stream size : 25.3 KiB (0%)
Language : English
Default : No
Forced : No

Menu
00:00:00.000 : en:Chapter 1
00:10:24.624 : en:Chapter 2
00:20:10.876 : en:Chapter 3
00:29:58.129 : en:Chapter 4
00:40:25.047 : en:Chapter 5
00:50:23.687 : en:Chapter 6
01:00:44.015 : en:Chapter 7
01:10:18.547 : en:Chapter 8
01:20:43.964 : en:Chapter 9
01:31:03.791 : en:Chapter 10
Скриншоты
 

Вложения

  • 15,8 KB Просмотры: 0
    Личеров 0
    Сидеров 0
    Файлов 1
    Объем 3 GB

Привет!

Мы группа людей которые решили помочь другим в решении их проблем, а так же пользователям с поиском самых свежих и качественных инфопродуктов. За 4 с небольшим месяца мы создали этот форум на который заходят ежедневно тысячи человек и посещаемость постоянно растёт. Мы создали панель лицензирования для защиты PHP скриптов от воровства и SEO панель для мониторинга наших сайтов и выбора верной стратегии их развития. Мы надеемся что то что мы создали пригодится Вам и возможно Вы поможете нам развиваться и совершенствоваться вместе с Вами.

Статистика форума

Темы
406.640
Сообщения
465.123
Пользователи
84.582
Новый пользователь
mladshiy

Приложения форума для iOS и Android


У ркн там нет власти ;)
Приватные разговоры
Помощь Пользователи
    Вы не присоединились ни к одной комнате.