За последнюю неделю опубликовано 57 новых материалов.
Инструкция новичку Путеводитель по форуму Прокси для Telegram Показать подсказки , это бомба!

Скачать Чудо-женщина: 1984 / Wonder Woman 1984 (2020) WEBRip 2160p | 4K | Трейлер №2 бесплатно через торрент

  • Поучаствуй (в качестве покупателя) в любых пяти совместных покупках (кроме завершённых и "Моментальных") и получи группу "Новичок" навсегда -> ссылка на раздел
  • Получай до 480 рублей за каждого приглашенного пользователя!
    представляем Вам очередное расширение партнерской программы, подробности описаны тут -> ссылка
  • 90% материалов доступно к скачиванию после простой регистрации!
    Если же ты хочешь скачивать материалы без требования оставлять отзывы то получи группу "Новичок", 10 способов повышения описаны тут -> ссылка
  • К сожалению количество битых ссылок растет и мы уже не можем их оперативно восстанавливать поэтому просим помощи у каждого нашего пользователя.
    С сегодняшнего дня, за каждую восстановленную ссылку мы заплатим Вам.
    Подробнее тут -> ссылка
  • Перенесем твои заслуги с другого ресурса!
    Мы понимаем как сложно прокачивать аккаунты на форумах, вроде раскачал аккаунт, а тут появляется ресурс в 100 раз круче но тоже с системой прокачки и снова качать аккаунт...
    Предлагаем вам перенести Ваши заслуги на другом подобном ресурсе к нам.
    Подробности описаны тут -> ссылка
  • Вы можете получать по 2.5% с каждой покупки и продажи на маркете! Подробности в теме Партнёрская программа
Если Вы не хотите скачивать, Вы всегда можетепосмотретьонлайн, просто нажмите кнопку ниже :

Открыть плеер

Torrent_Bot

Торрент-Бот
Бот форума
4 Окт 2016
92
160
20



Год выпуска: 2020
Производство: США / Warner Bros., DC Entertainment, DC Comics, Atlas Entertainment, The Stone Quarry
Жанр:Фэнтези, боевик, приключения

Режиссер: Пэтти Дженкинс
Продюсеры: Галь Гадот, Пэтти Дженкинс, Стивен Джонс
Актеры: Галь Гадот, Педро Паскаль, Крис Пайн, Робин Райт, Конни Нильсен, Кристен Уиг, Габриэлла Уайлд, Кристоффер Полаха, Лион Бекуив, Наташа Ротуэлл

Описание:
Влиятельный и успешный бизнесмен Лорд мечтает стать богом среди смертных. Для этого он не жалеет средств и собирает со всех уголков света разнообразные магические артефакты в попытке найти тот, который сможет подарить ему безграничную силу и могущество настоящего божества. В поисках ему помогает доктор Барбара Энн Минерва, специалист по древней истории. Так в руки Минервы попадает некий артефакт, который превращает её в дикую, кровожадную и неуправляемую женщину-кошку — Гепарду. Вне себя от ярости, она начинает охоту за Лордом, по чьей вине и превратилась в монстра.

Перевод: Дублированный
Субтитры: Нет

Дата мировой премьеры: 1 октября 2020
Дата российской премьеры: 1 октября 2020, «Каро-Премьер»



Продолжительность: 00:02:24
Качество видео: WEBRip 2160p
Видео: H264, 4096x1716, 35,0 Мбит/сек
Аудио 1: MP3 2.0, 128 Кбит/сек [Русский - дублированный]
Аудио 2: DTS 5.1, 1509 Кбит/сек [Английский - оригинал]
MediaInfo:
Общее
Уникальный идентификатор : 10023842797429818828189845689817460796 (0x78A859B3F614085C07537CA7F65703C)
Полное имя : D:TorrentsWonder Woman 1984 (2020) WEBRip [2160p] Trailer №2.mkv
Формат : Matroska
Версия формата : Version 4
Размер файла : 632 Мбайт
Продолжительность : 2 м. 24 с.
Общий поток : 36,6 Мбит/сек
Дата кодирования : UTC 2020-08-26 18:29:13
Программа кодирования : mkvmerge v49.0.0 ('Sick Of Losing Soulmates') 64-bit
Библиотека кодирования : libebml v1.4.0 + libmatroska v1.6.1

Видео
Идентификатор : 1
Формат : AVC
Формат/Информация : Advanced Video Codec
Профиль формата : [email protected]
Настройки формата : CABAC / 1 Ref Frames
Параметр CABAC формата : Да
Параметр RefFrames формата : 1 кадр
Идентификатор кодека : V_MPEG4/ISO/AVC
Продолжительность : 2 м. 24 с.
Битрейт : 35,0 Мбит/сек
Ширина : 4 096 пикселей
Высота : 1 716 пикселей
Соотношение сторон : 2,40:1
Режим частоты кадров : Постоянный
Частота кадров : 24,000 кадра/сек
Цветовое пространство : YUV
Субдискретизация насыщенности : 4:2:0
Битовая глубина : 8 бит
Тип развёртки : Прогрессивная
Бит/(Пиксели*Кадры) : 0.207
Размер потока : 603 Мбайт (96%)
Default : Да
Forced : Нет
Цветовой диапазон : Limited
Основные цвета : BT.709
Характеристики трансфера : BT.709
Коэффициенты матрицы : BT.601

Аудио #1
Идентификатор : 2
Формат : MPEG Audio
Версия формата : Version 1
Профиль формата : Layer 3
Настройки формата : Joint stereo / MS Stereo
Идентификатор кодека : A_MPEG/L3
Идентификатор кодека/Подсказка : MP3
Продолжительность : 2 м. 24 с.
Вид битрейта : Постоянный
Битрейт : 128 Кбит/сек
Каналы : 2 канала
Частота : 44,1 КГц
Частота кадров : 38,281 кадров/сек (1152 SPF)
Метод сжатия : С потерями
Задержка видео : 7 мс.
Размер потока : 2,20 Мбайт (0%)
Язык : Russian
Default : Да
Forced : Нет

Аудио #2
Идентификатор : 3
Формат : DTS
Формат/Информация : Digital Theater Systems
Идентификатор кодека : A_DTS
Продолжительность : 2 м. 24 с.
Вид битрейта : Постоянный
Битрейт : 1 509 Кбит/сек
Каналы : 6 каналов
Channel layout : C L R Ls Rs LFE
Частота : 48,0 КГц
Частота кадров : 93,750 кадра/сек (512 SPF)
Битовая глубина : 24 бит
Метод сжатия : С потерями
Задержка видео : 5 мс.
Размер потока : 26,0 Мбайт (4%)
Язык : English
Default : Нет
Forced : Нет
Скриншоты:
 

Вложения

  • 13,2 KB Просмотры: 0
    Личеров 0
    Сидеров 0
    Файлов 1
    Объем 631,5 MB

Привет!

Мы группа людей которые решили помочь другим в решении их проблем, а так же пользователям с поиском самых свежих и качественных инфопродуктов. За 4 с небольшим месяца мы создали этот форум на который заходят ежедневно тысячи человек и посещаемость постоянно растёт. Мы создали панель лицензирования для защиты PHP скриптов от воровства и SEO панель для мониторинга наших сайтов и выбора верной стратегии их развития. Мы надеемся что то что мы создали пригодится Вам и возможно Вы поможете нам развиваться и совершенствоваться вместе с Вами.

Статистика форума

Темы
406.651
Сообщения
465.096
Пользователи
84.641
Новый пользователь
Вова 1611

Приложения форума для iOS и Android


У ркн там нет власти ;)
Приватные разговоры
Помощь Пользователи
    Вы не присоединились ни к одной комнате.