За последнюю неделю опубликовано 52 новых материалов.
Инструкция новичку Путеводитель по форуму Прокси для Telegram Показать подсказки , это бомба!

Скачать Чёрный город (2010) DVDRip от New-Team бесплатно через торрент

  • Поучаствуй (в качестве покупателя) в любых пяти совместных покупках (кроме завершённых и "Моментальных") и получи группу "Новичок" навсегда -> ссылка на раздел
  • Получай до 480 рублей за каждого приглашенного пользователя!
    представляем Вам очередное расширение партнерской программы, подробности описаны тут -> ссылка
  • 90% материалов доступно к скачиванию после простой регистрации!
    Если же ты хочешь скачивать материалы без требования оставлять отзывы то получи группу "Новичок", 10 способов повышения описаны тут -> ссылка
  • К сожалению количество битых ссылок растет и мы уже не можем их оперативно восстанавливать поэтому просим помощи у каждого нашего пользователя.
    С сегодняшнего дня, за каждую восстановленную ссылку мы заплатим Вам.
    Подробнее тут -> ссылка
  • Перенесем твои заслуги с другого ресурса!
    Мы понимаем как сложно прокачивать аккаунты на форумах, вроде раскачал аккаунт, а тут появляется ресурс в 100 раз круче но тоже с системой прокачки и снова качать аккаунт...
    Предлагаем вам перенести Ваши заслуги на другом подобном ресурсе к нам.
    Подробности описаны тут -> ссылка
  • Вы можете получать по 2.5% с каждой покупки и продажи на маркете! Подробности в теме Партнёрская программа
Если Вы не хотите скачивать, Вы всегда можетепосмотретьонлайн, просто нажмите кнопку ниже :

Открыть плеер

Torrent_Bot

Торрент-Бот
Бот форума
4 Окт 2016
91
163
20

Жанр: криминал
Год выпуска: 2010
Продолжительность: 01:32:07

Режиссер: Виктор Татарский

В ролях: Дмитрий Марьянов, Александр Барановский, Екатерина Новикова, Алексей Федькин, Константин Дунаевский, Сергей Гамов, Лариса Луста, Марианна Коробейникова, Александр Стёпин, Денис Синявский...

Кинокомпания: НТВ, Триикс Медиагруп

Описание: В жизни 40-летнего следователя городской прокуратуры Олега Борина наступила черная полоса. Все началось с дела, возбужденного против студента, изнасиловавшего девушку. Подозреваемый оказался сыном влиятельного чиновника. Тот воспользовался своими связями, и Борина сначала просто отстранили, а после и вовсе выгнали со службы. Жена ушла, забрав ребенка. Вскоре раздался звонок, и старый приятель Гена предложил работу охранника. Борин согласился, собрал сумку и уехал. Только на месте большого оптового рынка его ждала полная разруха и запустение. Друга он так и не нашел, а местные алкаши рассказали, что рынок давно закрыт.
Той же ночью Олег тайно проник на территорию и… оказался в настоящем подземном городе, где протекала бурная жизнь: разгружались и загружались фуры, в цехах фасовали наркотики, работали подпольные казино и сомнительные кафе, там же ютились гастарбайтеры и в камерах содержали несовершеннолетних девочек. Увидев все ужасы, бесстрашный Олег Борин объявил этому миру войну! Удастся ли опальному следователю спасти своего друга, выйти на след хозяев порочного «Черного города» и восстановить справедливость?..

485649c514782f61448c0a23e2a4afaa.png

Тип релиза: DVDRip, источник DVD9 R5
Контейнер: AVI

Видео: 624x368 (1.696:1), 25.000 fps, XVID ~993 kbps avg, 0.172 bit/pixel
Аудио: 48 kHz, МР3, 2 ch, 128.00 kbps Constant
Релиз от:
MediaInfo
Общее
Полное имя : Chenyi.gorod.2010.O.DVDRip.745MB_[Youtracker]_by_avproh.avi
Формат : AVI
Формат/Информация : Audio Video Interleave
Размер файла : 745 Мбайт
Продолжительность : 1 ч. 32 м.
Общий поток : 1130 Кбит/сек
Программа кодирования : VirtualDubMod 1.5.10.3 | www.virtualdub-fr.org || (build 2550/release)
Библиотека кодирования : VirtualDubMod build 2550/release

Видео
Идентификатор : 0
Формат : MPEG-4 Visual
Профиль формата : Advanced [email protected]
Параметр BVOP формата : 1
Параметр QPel формата : Нет
Параметр GMC формата : Без точки перехода
Параметр матрицы формата : Выборочная
Идентификатор кодека : XVID
Идентификатор кодека/Подсказка : XviD
Продолжительность : 1 ч. 32 м.
Битрейт : 993 Кбит/сек
Ширина : 624 пикселя
Высота : 368 пикселей
Соотношение сторон : 1,696
Частота кадров : 25,000 кадров/сек
Цветовое пространство : YUV
Субдискретизация насыщенности : 4:2:0
Битовая глубина : 8 бит
Тип развёртки : Прогрессивная
Метод сжатия : С потерями
Бит/(Пиксели*Кадры) : 0.173
Размер потока : 654 Мбайт (88%)
Библиотека кодирования : XviD 65

Аудио
Идентификатор : 1
Формат : MPEG Audio
Версия формата : Version 1
Профиль формата : Layer 3
Идентификатор кодека : 55
Идентификатор кодека/Подсказка : MP3
Продолжительность : 1 ч. 32 м.
Вид битрейта : Постоянный
Битрейт : 128 Кбит/сек
Каналы : 2 канала
Частота : 48,0 КГц
Метод сжатия : С потерями
Размер потока : 84,3 Мбайт (11%)
Выравнивание : Соединение по промежуткам
Продолжительность промежутка : 40 мс. (1,00 видеокадр)
Время предзагрузки промежутка : 504 мс.
Скриншоты
cb6d303f46f3294212f712683fdef7c1.jpeg5341f7b202b26d44ed02e2be8731d827.jpeg1c76dc609173677f7d901a80eb8b1a81.jpegb3c40910e23d16c59bf02dd0aba87fa1.jpeg
 

Вложения

Привет!

Мы группа людей которые решили помочь другим в решении их проблем, а так же пользователям с поиском самых свежих и качественных инфопродуктов. За 4 с небольшим месяца мы создали этот форум на который заходят ежедневно тысячи человек и посещаемость постоянно растёт. Мы создали панель лицензирования для защиты PHP скриптов от воровства и SEO панель для мониторинга наших сайтов и выбора верной стратегии их развития. Мы надеемся что то что мы создали пригодится Вам и возможно Вы поможете нам развиваться и совершенствоваться вместе с Вами.

Статистика форума

Темы
410.533
Сообщения
469.092
Пользователи
86.012
Новый пользователь
Demicollection

Приложения форума для iOS и Android


У ркн там нет власти ;)
Приватные разговоры
Помощь Пользователи
    Вы не присоединились ни к одной комнате.