За последнюю неделю опубликовано 44 новых материалов.
Инструкция новичку Путеводитель по форуму Прокси для Telegram Показать подсказки , это бомба!

Скачать Чёрный город (2010) DVDRip от New-Team бесплатно через торрент

  • Поучаствуй (в качестве покупателя) в любых пяти совместных покупках (кроме завершённых и "Моментальных") и получи группу "Новичок" навсегда -> ссылка на раздел
  • Получай до 480 рублей за каждого приглашенного пользователя!
    представляем Вам очередное расширение партнерской программы, подробности описаны тут -> ссылка
  • 90% материалов доступно к скачиванию после простой регистрации!
    Если же ты хочешь скачивать материалы без требования оставлять отзывы то получи группу "Новичок", 10 способов повышения описаны тут -> ссылка
  • К сожалению количество битых ссылок растет и мы уже не можем их оперативно восстанавливать поэтому просим помощи у каждого нашего пользователя.
    С сегодняшнего дня, за каждую восстановленную ссылку мы заплатим Вам.
    Подробнее тут -> ссылка
  • Перенесем твои заслуги с другого ресурса!
    Мы понимаем как сложно прокачивать аккаунты на форумах, вроде раскачал аккаунт, а тут появляется ресурс в 100 раз круче но тоже с системой прокачки и снова качать аккаунт...
    Предлагаем вам перенести Ваши заслуги на другом подобном ресурсе к нам.
    Подробности описаны тут -> ссылка
  • Вы можете получать по 2.5% с каждой покупки и продажи на маркете! Подробности в теме Партнёрская программа
Если Вы не хотите скачивать, Вы всегда можетепосмотретьонлайн, просто нажмите кнопку ниже :

Открыть плеер

Torrent_Bot

Торрент-Бот
Бот форума
4 Окт 2016
90
168
20

Жанр: криминал
Год выпуска: 2010
Продолжительность: 01:32:07

Режиссер: Виктор Татарский

В ролях: Дмитрий Марьянов, Александр Барановский, Екатерина Новикова, Алексей Федькин, Константин Дунаевский, Сергей Гамов, Лариса Луста, Марианна Коробейникова, Александр Стёпин, Денис Синявский...

Кинокомпания: НТВ, Триикс Медиагруп

Описание: В жизни 40-летнего следователя городской прокуратуры Олега Борина наступила черная полоса. Все началось с дела, возбужденного против студента, изнасиловавшего девушку. Подозреваемый оказался сыном влиятельного чиновника. Тот воспользовался своими связями, и Борина сначала просто отстранили, а после и вовсе выгнали со службы. Жена ушла, забрав ребенка. Вскоре раздался звонок, и старый приятель Гена предложил работу охранника. Борин согласился, собрал сумку и уехал. Только на месте большого оптового рынка его ждала полная разруха и запустение. Друга он так и не нашел, а местные алкаши рассказали, что рынок давно закрыт.
Той же ночью Олег тайно проник на территорию и… оказался в настоящем подземном городе, где протекала бурная жизнь: разгружались и загружались фуры, в цехах фасовали наркотики, работали подпольные казино и сомнительные кафе, там же ютились гастарбайтеры и в камерах содержали несовершеннолетних девочек. Увидев все ужасы, бесстрашный Олег Борин объявил этому миру войну! Удастся ли опальному следователю спасти своего друга, выйти на след хозяев порочного «Черного города» и восстановить справедливость?..



Тип релиза: DVDRip, источник DVD9 R5
Контейнер: AVI

Видео: 688x400 (1.72:1), 25.000 fps, XVID ~1802 kbps avg, 0.262 bit/pixel
Аудио: 48 kHz, AC3, 6 ch, 448.00 kbps Constant
Релиз от:
MediaInfo
Общее
Полное имя : Chenyi.gorod.2010.O.DVDRip_[Youtracker]_by_avproh.avi
Формат : AVI
Формат/Информация : Audio Video Interleave
Размер файла : 1,45 Гбайт
Продолжительность : 1 ч. 32 м.
Общий поток : 2260 Кбит/сек
Программа кодирования : VirtualDubMod 1.5.10.3 | www.virtualdub-fr.org || (build 2550/release)
Библиотека кодирования : VirtualDubMod build 2550/release

Видео
Идентификатор : 0
Формат : MPEG-4 Visual
Профиль формата : Advanced [email protected]
Параметр BVOP формата : 1
Параметр QPel формата : Нет
Параметр GMC формата : Без точки перехода
Параметр матрицы формата : Выборочная
Идентификатор кодека : XVID
Идентификатор кодека/Подсказка : XviD
Продолжительность : 1 ч. 32 м.
Битрейт : 1802 Кбит/сек
Ширина : 688 пикселей
Высота : 400 пикселей
Соотношение сторон : 1,720
Частота кадров : 25,000 кадров/сек
Цветовое пространство : YUV
Субдискретизация насыщенности : 4:2:0
Битовая глубина : 8 бит
Тип развёртки : Прогрессивная
Метод сжатия : С потерями
Бит/(Пиксели*Кадры) : 0.262
Размер потока : 1,16 Гбайт (80%)
Библиотека кодирования : XviD 65

Аудио
Идентификатор : 1
Формат : AC-3
Формат/Информация : Audio Coding 3
Расширение режима : CM (complete main)
Параметр Endianness формата : Big
Идентификатор кодека : 2000
Продолжительность : 1 ч. 32 м.
Вид битрейта : Постоянный
Битрейт : 448 Кбит/сек
Каналы : 6 каналов
Расположение каналов : Front: L C R, Side: L R, LFE
Частота : 48,0 КГц
Битовая глубина : 16 бит
Метод сжатия : С потерями
Размер потока : 295 Мбайт (20%)
Выравнивание : Разделение по промежуткам
Продолжительность промежутка : 40 мс. (1,00 видеокадр)
Время предзагрузки промежутка : 500 мс.
Скриншоты
Сравнение
Релизер: bizonn - http://www.rutor.org/torrent/110512/chjornyj-gorod-2010-dvdrip-licenzija

Not found : Screenshot Comparison нарушен аспект и высветлен кадр
 

Вложения

  • 15,8 KB Просмотры: 0
    Личеров 0
    Сидеров 0
    Файлов 1
    Объем 1,5 GB

Привет!

Мы группа людей которые решили помочь другим в решении их проблем, а так же пользователям с поиском самых свежих и качественных инфопродуктов. За 4 с небольшим месяца мы создали этот форум на который заходят ежедневно тысячи человек и посещаемость постоянно растёт. Мы создали панель лицензирования для защиты PHP скриптов от воровства и SEO панель для мониторинга наших сайтов и выбора верной стратегии их развития. Мы надеемся что то что мы создали пригодится Вам и возможно Вы поможете нам развиваться и совершенствоваться вместе с Вами.

Статистика форума

Темы
410.923
Сообщения
469.328
Пользователи
88.233
Новый пользователь
Saydo

Приложения форума для iOS и Android


У ркн там нет власти ;)
Приватные разговоры
Помощь Пользователи
    Вы не присоединились ни к одной комнате.