За последнюю неделю опубликовано 180 новых материалов.
Инструкция новичку Путеводитель по форуму Прокси для Telegram Показать подсказки , это бомба!

Скачать Четыре комнаты / Four Rooms (1995) BDRemux 1080p | A, P, P2 бесплатно через торрент

  • Поучаствуй (в качестве покупателя) в любых пяти совместных покупках (кроме завершённых и "Моментальных") и получи группу "Новичок" навсегда -> ссылка на раздел
  • Получай до 480 рублей за каждого приглашенного пользователя!
    представляем Вам очередное расширение партнерской программы, подробности описаны тут -> ссылка
  • 90% материалов доступно к скачиванию после простой регистрации!
    Если же ты хочешь скачивать материалы без требования оставлять отзывы то получи группу "Новичок", 10 способов повышения описаны тут -> ссылка
  • К сожалению количество битых ссылок растет и мы уже не можем их оперативно восстанавливать поэтому просим помощи у каждого нашего пользователя.
    С сегодняшнего дня, за каждую восстановленную ссылку мы заплатим Вам.
    Подробнее тут -> ссылка
  • Перенесем твои заслуги с другого ресурса!
    Мы понимаем как сложно прокачивать аккаунты на форумах, вроде раскачал аккаунт, а тут появляется ресурс в 100 раз круче но тоже с системой прокачки и снова качать аккаунт...
    Предлагаем вам перенести Ваши заслуги на другом подобном ресурсе к нам.
    Подробности описаны тут -> ссылка
  • Вы можете получать по 2.5% с каждой покупки и продажи на маркете! Подробности в теме Партнёрская программа
Если Вы не хотите скачивать, Вы всегда можетепосмотретьонлайн, просто нажмите кнопку ниже :

Открыть плеер

Torrent_Bot

Торрент-Бот
Бот форума
4 Окт 2016
124
94
20

Название: Четыре комнаты
Оригинальное название: Four Rooms
Год выхода: 1995
Жанр: комедия
Режиссер: Эллисон Андерс, Роберт Родригес, Александр Рокуэлл, Квентин Тарантино
В ролях: Тим Рот, Мадонна, Дэвид Провэл, Мариса Томей, Антонио Бандерас, Квентин Тарантино, Брюс Уиллис, Айони Скай, Сальма Хайек, Валерия Голино, Аманда Де Кадене, Сэмми Дэвис...


О фильме:
Озорная комедия состоит из четырех новелл (каждый режиссёр сделал по одной), связанных одним героем — коридорным Тедом, вышедшим на работу накануне Нового года.

Он попадает на шабаш ведьм, чуть не погибает от руки ревнивого мужа, еле уносит ноги от шаловливых детишек гангстера, принимает участие в странном пари эксцентричных господ.

Но, несмотря на все сомнительные приключения, коридорный сохраняет невозмутимость в любых, самых невероятных ситуациях.



Страна: США,
Продолжительность: 01:37:48
Перевод: Авторский (одноголосый), профессиональный (многоголосый), профессиональный (двухголосый)


Качество: BDRemux 1080p
Видео: MPEG-4 AVC, 1920x1080 (16:9), 25.0 Mbps, 23.976 fps
Звук:
№ 1: DTS-HD MA | 5.1 | 48.0 kHz | 1958 kbps - Двухголосый, закадровыйPremier Digital
№ 2: DTS-HD MA | 5.1 | 48.0 kHz | 1960 kbps - АвторскийЮрий Живов
№ 3: DTS | 5.1 | 48.0 kHz | 1509 kbps - АвторскийАндрей Гаврилов
№ 4: AC3 | 5.1 | 48.0 kHz | 384 kbps - АвторскийВладимир Завгородний - ненормативная лексика
№ 5: AC3 | 5.1 | 48.0 kHz | 448 kbps - Многоголосый, закадровыйR2
№ 6: AC3 | 2.0 | 48.0 kHz | 192 kbps - Двухголосый, закадровыйПремьер Видео Фильм / ОРТ
№ 7: AC3 | 2.0 | 48.0 kHz | 192 kbps - АвторскийМихаил Иванов
№ 8: DTS-HD MA | 5.1 | 48.0 kHz | 1937 kbps - English
Субтитры: русские, английские

MI
General
Unique ID : 216618875102657585229544226340581979011 (0xA2F7471E6C4C18D5827B344304E0B383)
Complete name : C:MKV-iP27Four.Rooms.1995.BDRemux.[iP27].mkv
Format : Matroska
Format version : Version 4
File size : 22.9 GiB
Duration : 1 h 37 min
Overall bit rate mode : Variable
Overall bit rate : 33.6 Mb/s
Movie name : Four Rooms Четыре комнаты 1995 - [iP27]
Encoded date : UTC 2020-01-16 09:32:48
Writing application : mkvmerge v42.0.0 ('Overtime') 64-bit
Writing library : libebml v1.3.10 + libmatroska v1.5.2

Video
ID : 1
Format : AVC
Format/Info : Advanced Video Codec
Format profile : High@L4.1
Format settings : CABAC / 3 Ref Frames
Format settings, CABAC : Yes
Format settings, Reference frames : 3 frames
Format settings, GOP : M=3, N=12
Codec ID : V_MPEG4/ISO/AVC
Duration : 1 h 37 min
Bit rate mode : Variable
Bit rate : 25.0 Mb/s
Maximum bit rate : 35.0 Mb/s
Width : 1 920 pixels
Height : 1 080 pixels
Display aspect ratio : 16:9
Frame rate mode : Constant
Frame rate : 23.976 (24000/1001) FPS
Standard : NTSC
Color space : YUV
Chroma subsampling : 4:2:0
Bit depth : 8 bits
Scan type : Progressive
Bits/(Pixel*Frame) : 0.503
Stream size : 17.1 GiB (74%)
Title : Four.Rooms.1995.1080p.BD25.AVC.HUN.DTS-HD.MA-Mont
Language : English
Default : Yes
Forced : No
Color range : Limited
Color primaries : BT.709
Transfer characteristics : BT.709
Matrix coefficients : BT.709

Audio #1
ID : 2
Format : DTS XLL
Format/Info : Digital Theater Systems
Commercial name : DTS-HD Master Audio
Codec ID : A_DTS
Duration : 1 h 37 min
Bit rate mode : Variable
Bit rate : 1 958 kb/s
Channel(s) : 6 channels
Channel layout : C L R Ls Rs LFE
Sampling rate : 48.0 kHz
Frame rate : 93.750 FPS (512 SPF)
Bit depth : 16 bits
Compression mode : Lossless
Stream size : 1.34 GiB (6%)
Title : DVO (Premier Digital)
Language : Russian
Default : Yes
Forced : No

Audio #2
ID : 3
Format : DTS XLL
Format/Info : Digital Theater Systems
Commercial name : DTS-HD Master Audio
Codec ID : A_DTS
Duration : 1 h 37 min
Bit rate mode : Variable
Bit rate : 1 960 kb/s
Channel(s) : 6 channels
Channel layout : C L R Ls Rs LFE
Sampling rate : 48.0 kHz
Frame rate : 93.750 FPS (512 SPF)
Bit depth : 16 bits
Compression mode : Lossless
Stream size : 1.34 GiB (6%)
Title : AVO (Ю. Живов)
Language : Russian
Default : No
Forced : No

Audio #3
ID : 4
Format : DTS
Format/Info : Digital Theater Systems
Codec ID : A_DTS
Duration : 1 h 37 min
Bit rate mode : Constant
Bit rate : 1 509 kb/s
Channel(s) : 6 channels
Channel layout : C L R Ls Rs LFE
Sampling rate : 48.0 kHz
Frame rate : 93.750 FPS (512 SPF)
Bit depth : 16 bits
Compression mode : Lossy
Stream size : 1.03 GiB (4%)
Title : AVO (А. Гаврилов)
Language : Russian
Default : No
Forced : No

Audio #4
ID : 5
Format : AC-3
Format/Info : Audio Coding 3
Commercial name : Dolby Digital
Codec ID : A_AC3
Duration : 1 h 37 min
Bit rate mode : Constant
Bit rate : 384 kb/s
Channel(s) : 6 channels
Channel layout : L R C LFE Ls Rs
Sampling rate : 48.0 kHz
Frame rate : 31.250 FPS (1536 SPF)
Compression mode : Lossy
Stream size : 269 MiB (1%)
Title : AVO (В. Завгородний)
Language : Russian
Service kind : Complete Main
Default : No
Forced : No

Audio #5
ID : 6
Format : AC-3
Format/Info : Audio Coding 3
Commercial name : Dolby Digital
Codec ID : A_AC3
Duration : 1 h 37 min
Bit rate mode : Constant
Bit rate : 448 kb/s
Channel(s) : 6 channels
Channel layout : L R C LFE Ls Rs
Sampling rate : 48.0 kHz
Frame rate : 31.250 FPS (1536 SPF)
Compression mode : Lossy
Stream size : 313 MiB (1%)
Title : MVO (R2)
Language : Russian
Service kind : Complete Main
Default : No
Forced : No

Audio #6
ID : 7
Format : AC-3
Format/Info : Audio Coding 3
Commercial name : Dolby Digital
Codec ID : A_AC3
Duration : 1 h 37 min
Bit rate mode : Constant
Bit rate : 192 kb/s
Channel(s) : 2 channels
Channel layout : L R
Sampling rate : 48.0 kHz
Frame rate : 31.250 FPS (1536 SPF)
Compression mode : Lossy
Stream size : 134 MiB (1%)
Title : DVO (Премьер Видео Фильм / ОРТ)
Language : Russian
Service kind : Complete Main
Default : No
Forced : No

Audio #7
ID : 8
Format : AC-3
Format/Info : Audio Coding 3
Commercial name : Dolby Digital
Codec ID : A_AC3
Duration : 1 h 37 min
Bit rate mode : Constant
Bit rate : 192 kb/s
Channel(s) : 2 channels
Channel layout : L R
Sampling rate : 48.0 kHz
Frame rate : 31.250 FPS (1536 SPF)
Compression mode : Lossy
Stream size : 134 MiB (1%)
Title : AVO (М. Иванов)
Language : Russian
Service kind : Complete Main
Default : No
Forced : No

Audio #8
ID : 9
Format : DTS XLL
Format/Info : Digital Theater Systems
Commercial name : DTS-HD Master Audio
Codec ID : A_DTS
Duration : 1 h 37 min
Bit rate mode : Variable
Bit rate : 1 937 kb/s
Channel(s) : 6 channels
Channel layout : C L R Ls Rs LFE
Sampling rate : 48.0 kHz
Frame rate : 93.750 FPS (512 SPF)
Bit depth : 16 bits
Compression mode : Lossless
Stream size : 1.32 GiB (6%)
Title : Original
Language : English
Default : No
Forced : No

Text #1
ID : 10
Format : UTF-8
Codec ID : S_TEXT/UTF8
Codec ID/Info : UTF-8 Plain Text
Duration : 1 h 33 min
Bit rate : 91 b/s
Count of elements : 1004
Stream size : 62.9 KiB (0%)
Language : Russian
Default : Yes
Forced : No

Text #2
ID : 11
Format : UTF-8
Codec ID : S_TEXT/UTF8
Codec ID/Info : UTF-8 Plain Text
Duration : 1 h 34 min
Bit rate : 68 b/s
Count of elements : 1258
Stream size : 47.4 KiB (0%)
Language : English
Default : No
Forced : No

Menu
00:00:00.000 : en:Words of Wisdom
00:02:12.340 : en:Opening Credits
00:05:39.005 : en:The Honeymoon Suite
00:10:31.922 : en:Raunchy Ritual
00:14:42.756 : en:An Easy Fifty Bucks
00:20:09.541 : en:Bringing Back Diana
00:23:23.985 : en:Room 404
00:29:07.078 : en:Big Mistake
00:36:41.407 : en:Don't Call Me Theodore
00:41:03.377 : en:Room 309
00:48:45.756 : en:The $500 Baby-Sitter
00:55:36.249 : en:Smelly Feet
01:00:27.498 : en:A Dead Body in My Bed
01:04:41.711 : en:I Need to Speak to Betty
01:10:15.169 : en:The Penthouse
01:17:54.503 : en:Try a Little Cristal
01:26:11.291 : en:Whacked Wager
01:32:51.148 : en:Closing Credits
Скриншоты
Примечание
За ремукс и дорожку с Ю. Живовым спасибо HDCLUB.
Перевод В. Завгороднего доступен благодаря ресурсу "Переулок Переводмана".
За дорожку c Премьер Видео Фильм (VHS) спасибо ZVNV.
За дорожку А. Гаврилова спасибо участникам HD AVO.
 

Вложения

  • 58,3 KB Просмотры: 0
    Личеров 0
    Сидеров 0
    Файлов 1
    Объем 22,9 GB
Ваш e-mail не будет опубликован. Он потребуется для подтверждения Вашего поста.
Оформление текста Нажмите «Ввод», чтобы отправить ответ.

Привет!

Мы группа людей которые решили помочь другим в решении их проблем, а так же пользователям с поиском самых свежих и качественных инфопродуктов. За 4 с небольшим месяца мы создали этот форум на который заходят ежедневно тысячи человек и посещаемость постоянно растёт. Мы создали панель лицензирования для защиты PHP скриптов от воровства и SEO панель для мониторинга наших сайтов и выбора верной стратегии их развития. Мы надеемся что то что мы создали пригодится Вам и возможно Вы поможете нам развиваться и совершенствоваться вместе с Вами.

Статистика форума

Темы
378.718
Сообщения
417.955
Пользователи
49.509
Новый пользователь
SilenceBelokon

Приложения форума для iOS и Android


У ркн там нет власти ;)
Приватные разговоры
Помощь Пользователи
    Вы не присоединились ни к одной комнате.