За последнюю неделю опубликовано 48 новых материалов.
Инструкция новичку Путеводитель по форуму Прокси для Telegram Показать подсказки , это бомба!

Скачать Честный кандидат / Irresistible (2020) BDRip 1080p | HDRezka Studio бесплатно через торрент

  • Поучаствуй (в качестве покупателя) в любых пяти совместных покупках (кроме завершённых и "Моментальных") и получи группу "Новичок" навсегда -> ссылка на раздел
  • Получай до 480 рублей за каждого приглашенного пользователя!
    представляем Вам очередное расширение партнерской программы, подробности описаны тут -> ссылка
  • 90% материалов доступно к скачиванию после простой регистрации!
    Если же ты хочешь скачивать материалы без требования оставлять отзывы то получи группу "Новичок", 10 способов повышения описаны тут -> ссылка
  • К сожалению количество битых ссылок растет и мы уже не можем их оперативно восстанавливать поэтому просим помощи у каждого нашего пользователя.
    С сегодняшнего дня, за каждую восстановленную ссылку мы заплатим Вам.
    Подробнее тут -> ссылка
  • Перенесем твои заслуги с другого ресурса!
    Мы понимаем как сложно прокачивать аккаунты на форумах, вроде раскачал аккаунт, а тут появляется ресурс в 100 раз круче но тоже с системой прокачки и снова качать аккаунт...
    Предлагаем вам перенести Ваши заслуги на другом подобном ресурсе к нам.
    Подробности описаны тут -> ссылка
  • Вы можете получать по 2.5% с каждой покупки и продажи на маркете! Подробности в теме Партнёрская программа
Если Вы не хотите скачивать, Вы всегда можетепосмотретьонлайн, просто нажмите кнопку ниже :

Открыть плеер

Torrent_Bot

Торрент-Бот
Бот форума
4 Окт 2016
93
160
20


«Send In The Clowns This Spring»


Информация о фильме
Название: Честный кандидат
Оригинальное название: Irresistible
Год выхода: 2020
Жанр: Драма, комедия

Режиссер: Джон Стюарт
В ролях: Стив Карелл, Роуз Бирн, Крис Купер, Брент Секстон, Уилл Сассо, С.Дж. Уилсон, Кевин Майер, Том Ки, Чарльз Грин, Алан Айзенберг, Тофер Грэйс

О фильме:
Политический консультант-демократ помогает отставному полковнику морской пехоты баллотироваться на пост мэра в маленьком городке в штате Висконсин, где большая часть жителей придерживается правых взглядов.



Страна: США
Студия: Busboy Productions, Plan B Entertainment
Продолжительность: 01:41:37
Перевод:
• Профессиональный (многоголосый, закадровый) | HDRezka Studio


Файл
Качество: BDRip 1080p
Формат: MKV
Кодек: MPEG-4 AVC
Видео: 1800x1080 (5:3), 23,976 fps, MPEG-4 AVC, ~17,3 Мbps avg, 0.371 bit/pixel
Аудио: AC3, 48 kHz, 6 ch, ~448.00 kbps avg | русский | HDRezka Studio
Аудио: AC3, 48 kHz, 6 ch, ~640.00 kbps avg | английский | Оригинал
Субтитры: Русские (Forced), Английские (Full, SDH), Французские (Full)


Инфо-файл
Общее
Уникальный идентификатор : 158521392016165511848155584948203381000 (0x77421C0CD8226B384EA4ABA4C3AF6108)
Полное имя : Irresistible.2020.MVO.1080p.BluRay.x264.mkv
Формат : Matroska
Версия формата : Version 4
Размер файла : 13,0 Гбайт
Продолжительность : 1 ч. 41 м.
Общий поток : 18,4 Мбит/сек
Название фильма : Честный кандидат / Irresistible (2020)
Дата кодирования : UTC 2020-08-22 06:51:37
Программа кодирования : mkvmerge v47.0.0 ('Black Flag') 64-bit
Библиотека кодирования : libebml v1.3.10 + libmatroska v1.5.2
Обложка : Yes
Attachments : cover.jpg

Видео
Идентификатор : 1
Формат : AVC
Формат/Информация : Advanced Video Codec
Профиль формата : [email protected]
Настройки формата : CABAC / 4 Ref Frames
Параметр CABAC формата : Да
Параметр RefFrames формата : 4 кадра
Идентификатор кодека : V_MPEG4/ISO/AVC
Продолжительность : 1 ч. 41 м.
Битрейт : 17,3 Мбит/сек
Ширина : 1 800 пикселей
Высота : 1 080 пикселей
Соотношение сторон : 5:3
Режим частоты кадров : Постоянный
Частота кадров : 23,976 (24000/1001) кадра/сек
Цветовое пространство : YUV
Субдискретизация насыщенности : 4:2:0
Битовая глубина : 8 бит
Тип развёртки : Прогрессивная
Бит/(Пиксели*Кадры) : 0.371
Размер потока : 12,3 Гбайт (94%)
Заголовок : #iFT
Библиотека кодирования : x264 core 161 r3018+53 ~ Encoded by Mocunaman in Portugal
Настройки программы : cabac=1 / ref=4 / deblock=1:-3:-3 / analyse=0x3:0x113 / me=umh / subme=11 / psy=1 / fade_compensate=0.00 / psy_rd=1.00:0.00 / mixed_ref=1 / me_range=32 / chroma_me=1 / trellis=2 / 8x8dct=1 / cqm=0 / deadzone=21,11 / fast_pskip=0 / chroma_qp_offset=-2 / threads=34 / lookahead_threads=5 / sliced_threads=0 / nr=0 / decimate=0 / interlaced=0 / bluray_compat=0 / constrained_intra=0 / fgo=0 / bframes=8 / b_pyramid=2 / b_adapt=2 / b_bias=0 / direct=3 / weightb=1 / open_gop=0 / weightp=2 / keyint=250 / keyint_min=23 / scenecut=40 / intra_refresh=0 / rc_lookahead=60 / rc=crf / mbtree=0 / crf=17.5000 / qcomp=0.62 / qpmin=0:0:0 / qpmax=69:69:69 / qpstep=4 / vbv_maxrate=62500 / vbv_bufsize=78125 / crf_max=0.0 / nal_hrd=none / filler=0 / ip_ratio=1.30 / pb_ratio=1.20 / aq=3:0.80 / aq-sensitivity=10.00 / aq-factor=1.00:1.00:1.00 / aq2=0 / aq3=0 / zones=0,1056,crf=16.5/6981,13461,crf=16.5/18461,19709,crf=16.8/19996,26198,crf=17/36955,37137,crf=16.5/59526,63027,crf=16.9/63075,67820,crf=16.5/87492,90055,crf=17/90580,91204,crf=16.5/105827,111167,crf=16.8/113511,121941,crf=16.3
Язык : English
Default : Да
Forced : Нет
Цветовой диапазон : Limited
Основные цвета : BT.709
Характеристики трансфера : BT.709
Коэффициенты матрицы : BT.709

Аудио #1
Идентификатор : 2
Формат : AC-3
Формат/Информация : Audio Coding 3
Коммерческое название : Dolby Digital
Идентификатор кодека : A_AC3
Продолжительность : 1 ч. 41 м.
Вид битрейта : Постоянный
Битрейт : 448 Кбит/сек
Каналы : 6 каналов
Channel layout : L R C LFE Ls Rs
Частота : 48,0 КГц
Частота кадров : 31,250 кадров/сек (1536 SPF)
Метод сжатия : С потерями
Размер потока : 326 Мбайт (2%)
Заголовок : MVO | HDRezka Studio
Язык : Russian
Service kind : Complete Main
Default : Да
Forced : Нет

Аудио #2
Идентификатор : 3
Формат : AC-3
Формат/Информация : Audio Coding 3
Коммерческое название : Dolby Digital
Идентификатор кодека : A_AC3
Продолжительность : 1 ч. 41 м.
Вид битрейта : Постоянный
Битрейт : 640 Кбит/сек
Каналы : 6 каналов
Channel layout : L R C LFE Ls Rs
Частота : 48,0 КГц
Частота кадров : 31,250 кадров/сек (1536 SPF)
Метод сжатия : С потерями
Размер потока : 465 Мбайт (3%)
Язык : English
Service kind : Complete Main
Default : Нет
Forced : Нет

Текст #1
Идентификатор : 4
Формат : UTF-8
Идентификатор кодека : S_TEXT/UTF8
Идентификатор кодека/Информация : UTF-8 Plain Text
Продолжительность : 1 ч. 38 м.
Битрейт : 4 бит/сек
Count of elements : 67
Размер потока : 3,35 Кбайт (0%)
Заголовок : Forced
Язык : Russian
Default : Да
Forced : Да

Текст #2
Идентификатор : 5
Формат : UTF-8
Идентификатор кодека : S_TEXT/UTF8
Идентификатор кодека/Информация : UTF-8 Plain Text
Продолжительность : 1 ч. 40 м.
Битрейт : 87 бит/сек
Count of elements : 1602
Размер потока : 64,3 Кбайт (0%)
Заголовок : Full
Язык : English
Default : Нет
Forced : Нет

Текст #3
Идентификатор : 6
Формат : UTF-8
Идентификатор кодека : S_TEXT/UTF8
Идентификатор кодека/Информация : UTF-8 Plain Text
Продолжительность : 1 ч. 40 м.
Битрейт : 95 бит/сек
Count of elements : 1775
Размер потока : 70,1 Кбайт (0%)
Заголовок : SDH
Язык : English
Default : Нет
Forced : Нет

Текст #4
Идентификатор : 7
Формат : UTF-8
Идентификатор кодека : S_TEXT/UTF8
Идентификатор кодека/Информация : UTF-8 Plain Text
Продолжительность : 1 ч. 41 м.
Битрейт : 95 бит/сек
Count of elements : 1667
Размер потока : 70,7 Кбайт (0%)
Заголовок : Full
Язык : French
Default : Нет
Forced : Нет

Меню
00:00:00.000 : en:Chapter 1
00:04:51.291 : en:Chapter 2
00:10:15.448 : en:Chapter 3
00:13:29.017 : en:Chapter 4
00:18:12.717 : en:Chapter 5
00:25:48.964 : en:Chapter 6
00:29:34.898 : en:Chapter 7
00:35:03.893 : en:Chapter 8
00:38:58.461 : en:Chapter 9
00:43:48.793 : en:Chapter 10
00:48:48.342 : en:Chapter 11
00:54:43.155 : en:Chapter 12
01:02:36.086 : en:Chapter 13
01:08:10.295 : en:Chapter 14
01:12:35.977 : en:Chapter 15
01:17:51.375 : en:Chapter 16
01:21:37.601 : en:Chapter 17
01:25:55.025 : en:Chapter 18
01:29:29.406 : en:Chapter 19
01:35:01.237 : en:Chapter 20
Скриншоты
 

Вложения

  • 33,5 KB Просмотры: 0
    Личеров 0
    Сидеров 0
    Файлов 1
    Объем 13 GB

Привет!

Мы группа людей которые решили помочь другим в решении их проблем, а так же пользователям с поиском самых свежих и качественных инфопродуктов. За 4 с небольшим месяца мы создали этот форум на который заходят ежедневно тысячи человек и посещаемость постоянно растёт. Мы создали панель лицензирования для защиты PHP скриптов от воровства и SEO панель для мониторинга наших сайтов и выбора верной стратегии их развития. Мы надеемся что то что мы создали пригодится Вам и возможно Вы поможете нам развиваться и совершенствоваться вместе с Вами.

Статистика форума

Темы
406.640
Сообщения
465.124
Пользователи
84.581
Новый пользователь
Напракун

Приложения форума для iOS и Android


У ркн там нет власти ;)
Приватные разговоры
Помощь Пользователи
    Вы не присоединились ни к одной комнате.