За последнюю неделю опубликовано 45 новых материалов.
Инструкция новичку Путеводитель по форуму Прокси для Telegram Показать подсказки , это бомба!

Скачать Черный рыцарь / Black Knight (2001) BDRip 720p от HELLYWOOD | P, A бесплатно через торрент

  • Поучаствуй (в качестве покупателя) в любых пяти совместных покупках (кроме завершённых и "Моментальных") и получи группу "Новичок" навсегда -> ссылка на раздел
  • Получай до 480 рублей за каждого приглашенного пользователя!
    представляем Вам очередное расширение партнерской программы, подробности описаны тут -> ссылка
  • 90% материалов доступно к скачиванию после простой регистрации!
    Если же ты хочешь скачивать материалы без требования оставлять отзывы то получи группу "Новичок", 10 способов повышения описаны тут -> ссылка
  • К сожалению количество битых ссылок растет и мы уже не можем их оперативно восстанавливать поэтому просим помощи у каждого нашего пользователя.
    С сегодняшнего дня, за каждую восстановленную ссылку мы заплатим Вам.
    Подробнее тут -> ссылка
  • Перенесем твои заслуги с другого ресурса!
    Мы понимаем как сложно прокачивать аккаунты на форумах, вроде раскачал аккаунт, а тут появляется ресурс в 100 раз круче но тоже с системой прокачки и снова качать аккаунт...
    Предлагаем вам перенести Ваши заслуги на другом подобном ресурсе к нам.
    Подробности описаны тут -> ссылка
  • Вы можете получать по 2.5% с каждой покупки и продажи на маркете! Подробности в теме Партнёрская программа
Если Вы не хотите скачивать, Вы всегда можетепосмотретьонлайн, просто нажмите кнопку ниже :

Открыть плеер

Torrent_Bot

Торрент-Бот
Бот форума
4 Окт 2016
93
156
20
Черный рыцарь / Black Knight (2001) BDRip 720p
от HELLYWOOD



Информация о фильме:
Год выпуска: 2001
Страна: США
Слоган: «It's only a flesh wound!»

Жанр: фэнтези, комедия, приключения

Продолжительность: 01:35:37

Перевод: Профессиональный (многоголосый закадровый)
Авторский (одноголосый, закадровый) С.Визгунов
Оригинальная звуковая дорожка
Субтитры: Русские, Английские

Режиссёр: Джил Джангер / Gil Junger

В ролях: Мартин Лоуренс, Марша Томасон, Том Уилкинсон, Винсент Риган, Майкл Кантримэн, Кевин Конуэй, Джаннетт Вигар, Эрик Дженсен, Дикран Тулейн, Хелен Кэри

Описание: Был обычный летний день. Джамал, как обычно, чистил ров в городском парке развлечений «Средневековый мир». Но судьба уже готовила ему самое веселое и безумное приключение в его жизни...
Случайно перевернувшись через перила моста, Джамал падает в воду и выныривает в Средневековой Англии! Принятый за посла из Нормандии из-за странной одежды и манеры говорить, он знакомится с очаровательной заговорщицей, которая хочет свергнуть короля-тирана.
Затянутый в заговор, Джамал между делом планирует открытие сети ресторанов быстрого питания, соблазняет дочку короля и запугивает до смерти всех горожан своими «колдовскими» способностями...

Релиз от:
Автор рипа: serokuz74

Файл:
Формат: MKV
Качество: BDRip 720p (Исходник: NNM-Club /Blu-Ray Remux /1080p)
Видео: 1280x544 at 23.976 fps, [email protected], crf, ~5998 kbps avg
Аудио #1: 48 kHz, AC3 Dolby Digital, 3/2 (L,C,R,l,r) + LFE ch, ~384 kbps |MVO|
Аудио #2: 48 kHz, AC3 Dolby Digital, 3/2 (L,C,R,l,r) + LFE ch, ~256 kbps |AVO, С.Визгунов|
Аудио #3: 48 kHz, AC3 Dolby Digital, 3/2 (L,C,R,l,r) + LFE ch, ~640 kbps |ENG|

Скачать: Семпл

Знаете ли Вы, что...
Согласно информации от производителей съемки фильма происходили в Уилмингтоне (штат Северная Каролина), а сцены современности были сняты в Каролина-Бич (штат Северная Каролина).
Первоначально фильм должен был выйти в мае 2001 года, затем в январе 2001. В конечном счете он появился на свет 21 ноября 2001 года.
Первоначально в фильме должен был сниматься Крис Такер, который отказался сниматься без 15-миллионного гонорара.
Сцена, в которой принцесса Регина спотыкается через покрывала на своей кровати и падает, изначально не была запланирована в сценарии. Джаннетт Вигар по чистой случайности споткнулась и упала, но получившиеся при этом кадры так понравились режиссёру, что он включил их в финальную версию фильма.
В некоторых сценах фильма виден флаг Венгрии.
Хореографом одного из танцев была Пола Абдул.
еще 3 факта
MediaInfo:
General
Unique ID : 198883325923092815395284070101706285932 (0x959F8908563F5CFFBFA76DA33A2F236C)
Complete name : D:Chernyi.Rycar.2001.BDRip.720p.TRIPLE.-HELLYWOOD.mkv
Format : Matroska
Format version : Version 2
File size : 4.96 GiB
Duration : 1h 35mn
Overall bit rate : 7 426 Kbps
Movie name : Black Knight (2001) - http://hellywood.ru/
Encoded date : UTC 2014-01-12 18:30:49
Writing application : mkvmerge v6.7.0 ('Back to the Ground') 32bit built on Jan 8 2014 15:03:17
Writing library : libebml v1.3.0 + libmatroska v1.4.1

Video
ID : 1
Format : AVC
Format/Info : Advanced Video Codec
Format profile : [email protected]
Format settings, CABAC : Yes
Format settings, ReFrames : 12 frames
Codec ID : V_MPEG4/ISO/AVC
Duration : 1h 35mn
Bit rate : 5 998 Kbps
Width : 1 280 pixels
Height : 544 pixels
Display aspect ratio : 2.35:1
Frame rate : 23.976 fps
Color space : YUV
Chroma subsampling : 4:2:0
Bit depth : 8 bits
Scan type : Progressive
Bits/(Pixel*Frame) : 0.359
Stream size : 4.01 GiB (81%)
Title : serokuz74
Writing library : x264 core 140 r2377kMod 1ca7bb9
Encoding settings : cabac=1 / ref=12 / deblock=1:-3:-3 / analyse=0x3:0x133 / me=umh / subme=11 / psy=1 / fade_compensate=0.00 / psy_rd=1.00:0.00 / mixed_ref=1 / me_range=48 / chroma_me=1 / trellis=2 / 8x8dct=1 / cqm=0 / deadzone=21,11 / fast_pskip=1 / chroma_qp_offset=-2 / threads=12 / lookahead_threads=2 / sliced_threads=0 / nr=0 / decimate=1 / interlaced=0 / bluray_compat=0 / constrained_intra=0 / fgo=0 / bframes=11 / b_pyramid=2 / b_adapt=2 / b_bias=0 / direct=1 / weightb=1 / open_gop=0 / weightp=2 / keyint=250 / keyint_min=23 / scenecut=40 / intra_refresh=0 / rc_lookahead=60 / rc=crf / mbtree=0 / crf=15.5000 / qcomp=0.60 / qpmin=0 / qpmax=69 / qpstep=4 / vbv_maxrate=50000 / vbv_bufsize=62500 / crf_max=0.0 / nal_hrd=none / filler=0 / ip_ratio=1.30 / pb_ratio=1.20 / aq=2:0.80
Language : English
Default : Yes
Forced : No
Matrix coefficients : BT.709-5, BT.1361, IEC 61966-2-4 709, SMPTE RP177

Audio #1
ID : 2
Format : AC-3
Format/Info : Audio Coding 3
Mode extension : CM (complete main)
Format settings, Endianness : Big
Codec ID : A_AC3
Duration : 1h 35mn
Bit rate mode : Constant
Bit rate : 384 Kbps
Channel(s) : 6 channels
Channel positions : Front: L C R, Side: L R, LFE
Sampling rate : 48.0 KHz
Bit depth : 16 bits
Compression mode : Lossy
Stream size : 263 MiB (5%)
Title : AC3 5.1 @ 384 kbps - MVO
Language : Russian
Default : Yes
Forced : No

Audio #2
ID : 3
Format : AC-3
Format/Info : Audio Coding 3
Mode extension : CM (complete main)
Format settings, Endianness : Big
Codec ID : A_AC3
Duration : 1h 35mn
Bit rate mode : Constant
Bit rate : 256 Kbps
Channel(s) : 6 channels
Channel positions : Front: L C R, Side: L R, LFE
Sampling rate : 48.0 KHz
Bit depth : 16 bits
Compression mode : Lossy
Stream size : 175 MiB (3%)
Title : AC3 5.1 @ 256 kbps - AVO, Vizgunov
Language : Russian
Default : No
Forced : No

Audio #3
ID : 4
Format : AC-3
Format/Info : Audio Coding 3
Mode extension : CM (complete main)
Format settings, Endianness : Big
Codec ID : A_AC3
Duration : 1h 35mn
Bit rate mode : Constant
Bit rate : 640 Kbps
Channel(s) : 6 channels
Channel positions : Front: L C R, Side: L R, LFE
Sampling rate : 48.0 KHz
Bit depth : 16 bits
Compression mode : Lossy
Stream size : 438 MiB (9%)
Title : AC3 5.1 @ 640 kbps - Original
Language : English
Default : No
Forced : No

Text #1
ID : 5
Format : UTF-8
Codec ID : S_TEXT/UTF8
Codec ID/Info : UTF-8 Plain Text
Title : Full
Language : Russian
Default : No
Forced : No

Text #2
ID : 6
Format : UTF-8
Codec ID : S_TEXT/UTF8
Codec ID/Info : UTF-8 Plain Text
Title : Full
Language : English
Default : No
Forced : No

Menu
00:00:00.000 : en:Chapter 01
00:09:19.934 : en:Chapter 02
00:18:25.771 : en:Chapter 03
00:29:46.117 : en:Chapter 04
00:39:44.882 : en:Chapter 05
00:50:03.041 : en:Chapter 06
00:59:31.943 : en:Chapter 07
01:09:48.934 : en:Chapter 08
01:20:29.574 : en:Chapter 09
01:28:38.062 : en:Chapter 10
01:35:37.481 : en:Chapter 11
x264 log:
x264 [info]: frame I:1362 Avg QP:15.03 size:107993
x264 [info]: frame P:29115 Avg QP:16.42 size: 53059
x264 [info]: frame B:107091 Avg QP:17.71 size: 25346
x264 [info]: consecutive B-frames: 1.8% 2.0% 6.1% 25.3% 21.1% 29.9% 6.4% 5.0% 1.2% 0.5% 0.2% 0.5%
x264 [info]: mb I I16..4: 1.1% 88.5% 10.5%
x264 [info]: mb P I16..4: 0.1% 20.9% 1.1% P16..4: 22.4% 30.3% 17.8% 2.8% 0.2% skip: 4.4%
x264 [info]: mb B I16..4: 0.0% 2.7% 0.1% B16..8: 32.7% 28.9% 8.2% direct:11.6% skip:15.7% L0:40.9% L1:38.5% BI:20.6%
x264 [info]: 8x8 transform intra:93.9% inter:55.1%
x264 [info]: coded y,uvDC,uvAC intra: 98.8% 95.3% 80.3% inter: 58.0% 43.3% 8.3%
x264 [info]: i16 v,h,dc,p: 21% 5% 12% 62%
x264 [info]: i8 v,h,dc,ddl,ddr,vr,hd,vl,hu: 8% 7% 7% 11% 14% 14% 13% 13% 14%
x264 [info]: i4 v,h,dc,ddl,ddr,vr,hd,vl,hu: 9% 6% 3% 9% 18% 16% 15% 12% 12%
x264 [info]: i8c dc,h,v,p: 49% 18% 17% 16%
x264 [info]: Weighted P-Frames: Y:8.1% UV:5.0%
x264 [info]: ref P L0: 41.2% 14.2% 17.5% 6.5% 5.7% 3.7% 3.5% 1.9% 1.9% 1.4% 1.4% 1.2% 0.1% 0.0%
x264 [info]: ref B L0: 74.0% 11.2% 4.9% 2.9% 2.0% 1.7% 1.3% 0.9% 0.7% 0.4% 0.2%
x264 [info]: ref B L1: 94.0% 6.0%
Скриншоты:

 

Вложения

  • 13,5 KB Просмотры: 1
    Личеров 0
    Сидеров 0
    Файлов 1
    Объем 5 GB

Привет!

Мы группа людей которые решили помочь другим в решении их проблем, а так же пользователям с поиском самых свежих и качественных инфопродуктов. За 4 с небольшим месяца мы создали этот форум на который заходят ежедневно тысячи человек и посещаемость постоянно растёт. Мы создали панель лицензирования для защиты PHP скриптов от воровства и SEO панель для мониторинга наших сайтов и выбора верной стратегии их развития. Мы надеемся что то что мы создали пригодится Вам и возможно Вы поможете нам развиваться и совершенствоваться вместе с Вами.

Статистика форума

Темы
406.579
Сообщения
464.792
Пользователи
83.568
Новый пользователь
Renatarezapova

Приложения форума для iOS и Android


У ркн там нет власти ;)
Приватные разговоры
Помощь Пользователи
    Вы не присоединились ни к одной комнате.