За последнюю неделю опубликовано 97 новых материалов.
Инструкция новичку Путеводитель по форуму Прокси для Telegram Показать подсказки , это бомба!

Скачать Черновик (2018) BDRip-AVC от ExKinoRay | Лицензия бесплатно через торрент

  • Поучаствуй (в качестве покупателя) в любых пяти совместных покупках (кроме завершённых и "Моментальных") и получи группу "Новичок" навсегда -> ссылка на раздел
  • Получай до 480 рублей за каждого приглашенного пользователя!
    представляем Вам очередное расширение партнерской программы, подробности описаны тут -> ссылка
  • 90% материалов доступно к скачиванию после простой регистрации!
    Если же ты хочешь скачивать материалы без требования оставлять отзывы то получи группу "Новичок", 10 способов повышения описаны тут -> ссылка
  • К сожалению количество битых ссылок растет и мы уже не можем их оперативно восстанавливать поэтому просим помощи у каждого нашего пользователя.
    С сегодняшнего дня, за каждую восстановленную ссылку мы заплатим Вам.
    Подробнее тут -> ссылка
  • Перенесем твои заслуги с другого ресурса!
    Мы понимаем как сложно прокачивать аккаунты на форумах, вроде раскачал аккаунт, а тут появляется ресурс в 100 раз круче но тоже с системой прокачки и снова качать аккаунт...
    Предлагаем вам перенести Ваши заслуги на другом подобном ресурсе к нам.
    Подробности описаны тут -> ссылка
  • Вы можете получать по 2.5% с каждой покупки и продажи на маркете! Подробности в теме Партнёрская программа
Если Вы не хотите скачивать, Вы всегда можетепосмотретьонлайн, просто нажмите кнопку ниже :

Открыть плеер

Torrent_Bot

Торрент-Бот
Бот форума
4 Окт 2016
124
96
20


Информация о фильме
Название: Черновик
Год выхода: 2018
Жанр: Фантастика
Режиссер: Сергей Мокрицкий
В ролях: Наталья Мокрицкая, Ульяна Савельева, Мила Розанова
Актеры: Никита Волков, Евгений Ткачук, Ольга Боровская, Юлия Пересильд, Северия Янушаускайте, Евгений Цыганов, Елена Яковлева, Ирина Демидкина, Андрей Мерзликин, Андрей Руденский

О фильме:
Молодой москвич Кирилл — талантливый дизайнер компьютерных игр. В один прекрасный день он оказывается напрочь стертым из памяти всех, кого он знал и любил. Кирилл узнает, что выбран для важной и таинственной миссии. Его предназначение — стать таможенником между параллельными мирами, коих во Вселенной десятки. Сможет ли Кирилл разгадать тайну этих таинственных миров и того, кто и зачем ими управляет? И действительно ли наша Земля — всего лишь воображаемый «черновик», параллельный мир, которого в Реальности не существует.



Страна: Россия
Студия: «Новые люди»
Продолжительность: 01:55:34
Перевод: не требуется
Субтитры: нет

Формат: MKV
Качество: BDRip-AVC
Видео: MPEG-4 AVC, 720x302 (2.40:1), 24.000 fps, ~1346 kbps avg, 0.258 bit/pixel
Аудио: 48 kHz, AC3 Dolby Digital, 5/1 ch, ~448 kbps

МИ
General
Unique ID : 219397063912691907848699194720716593487 (0xA50E56670E544149B5E9B546EC44194F)
Complete name : D:Черновик.2018.BDRip.AVC.ExkinoRay.mkv
Format : Matroska
Format version : Version 2
File size : 1.45 GiB
Duration : 1 h 55 min
Overall bit rate : 1 794 kb/s
Movie name : Черновик 2018 from ExKinoRay
Encoded date : UTC 2018-09-20 12:04:10
Writing application : mkvmerge v5.6.0 ('Kenya Kane') built on May 27 2012 16:44:04
Writing library : libebml v1.2.3 + libmatroska v1.3.0

Video
ID : 1
Format : AVC
Format/Info : Advanced Video Codec
Format profile : High@L4.1
Format settings, CABAC : Yes
Format settings, ReFrames : 12 frames
Codec ID : V_MPEG4/ISO/AVC
Duration : 1 h 55 min
Bit rate : 1 346 kb/s
Width : 720 pixels
Height : 302 pixels
Display aspect ratio : 2.40:1
Frame rate mode : Constant
Frame rate : 24.000 FPS
Color space : YUV
Chroma subsampling : 4:2:0
Bit depth : 8 bits
Scan type : Progressive
Bits/(Pixel*Frame) : 0.258
Stream size : 1.06 GiB (73%)
Title : Enigma
Writing library : x264 core 152 r2851 ba24899
Encoding settings : cabac=1 / ref=12 / deblock=1:-2:-2 / analyse=0x3:0x113 / me=umh / subme=10 / psy=1 / psy_rd=1.00:0.05 / mixed_ref=1 / me_range=32 / chroma_me=1 / trellis=2 / 8x8dct=1 / cqm=0 / deadzone=21,11 / fast_pskip=0 / chroma_qp_offset=-3 / threads=9 / lookahead_threads=2 / sliced_threads=0 / nr=0 / decimate=0 / interlaced=0 / bluray_compat=0 / constrained_intra=0 / bframes=10 / b_pyramid=2 / b_adapt=2 / b_bias=0 / direct=3 / weightb=1 / open_gop=0 / weightp=2 / keyint=240 / keyint_min=23 / scenecut=40 / intra_refresh=0 / rc=2pass / mbtree=0 / bitrate=1346 / ratetol=1.0 / qcomp=0.60 / qpmin=0 / qpmax=51 / qpstep=4 / cplxblur=20.0 / qblur=0.5 / ip_ratio=1.40 / pb_ratio=1.30 / aq=1:1.00
Default : Yes
Forced : No
Color range : Limited
Color primaries : BT.709
Transfer characteristics : BT.709
Matrix coefficients : BT.709

Audio
ID : 2
Format : AC-3
Format/Info : Audio Coding 3
Mode extension : CM (complete main)
Format settings, Endianness : Big
Codec ID : A_AC3
Duration : 1 h 55 min
Bit rate mode : Constant
Bit rate : 448 kb/s
Channel(s) : 6 channels
Channel positions : Front: L C R, Side: L R, LFE
Sampling rate : 48.0 kHz
Frame rate : 31.250 FPS (1536 spf)
Compression mode : Lossy
Stream size : 370 MiB (25%)
Title : License
Language : Russian
Default : Yes
Forced : No

Menu
00:00:00.000 : ru:Chapter 1
00:02:40.291 : ru:Chapter 2
00:05:48.375 : ru:Chapter 3
00:10:01.333 : ru:Chapter 4
00:13:08.041 : ru:Chapter 5
00:19:07.000 : ru:Chapter 6
00:22:56.333 : ru:Chapter 7
00:29:18.625 : ru:Chapter 8
00:36:24.583 : ru:Chapter 9
00:41:59.583 : ru:Chapter 10
00:46:21.208 : ru:Chapter 11
00:52:56.291 : ru:Chapter 12
01:00:12.416 : ru:Chapter 13
01:03:48.333 : ru:Chapter 14
01:12:32.458 : ru:Chapter 15
01:18:14.583 : ru:Chapter 16
01:21:37.291 : ru:Chapter 17
01:25:17.125 : ru:Chapter 18
01:28:57.083 : ru:Chapter 19
01:32:48.208 : ru:Chapter 20
01:37:04.000 : ru:Chapter 21
01:44:50.333 : ru:Chapter 22
01:47:57.250 : ru:Chapter 23
01:50:27.958 : ru:Chapter 24
01:55:33.958 : ru:Chapter 25





Релиз от:

Автор релиза:
 

Вложения

  • 15,5 KB Просмотры: 1
    Личеров 0
    Сидеров 0
    Файлов 1
    Объем 1,4 GB
Ваш e-mail не будет опубликован. Он потребуется для подтверждения Вашего поста.
Оформление текста Нажмите «Ввод», чтобы отправить ответ.

Привет!

Мы группа людей которые решили помочь другим в решении их проблем, а так же пользователям с поиском самых свежих и качественных инфопродуктов. За 4 с небольшим месяца мы создали этот форум на который заходят ежедневно тысячи человек и посещаемость постоянно растёт. Мы создали панель лицензирования для защиты PHP скриптов от воровства и SEO панель для мониторинга наших сайтов и выбора верной стратегии их развития. Мы надеемся что то что мы создали пригодится Вам и возможно Вы поможете нам развиваться и совершенствоваться вместе с Вами.

Статистика форума

Темы
378.778
Сообщения
418.232
Пользователи
50.152
Новый пользователь
akaterk

Приложения форума для iOS и Android


У ркн там нет власти ;)
Приватные разговоры
Помощь Пользователи
    Вы не присоединились ни к одной комнате.