За последнюю неделю опубликовано 46 новых материалов.
Инструкция новичку Путеводитель по форуму Прокси для Telegram Показать подсказки , это бомба!

Скачать Чернокнижник / Warlock (1989) BDRip-AVC от DrVampir | D, P, A бесплатно через торрент

  • Поучаствуй (в качестве покупателя) в любых пяти совместных покупках (кроме завершённых и "Моментальных") и получи группу "Новичок" навсегда -> ссылка на раздел
  • Получай до 480 рублей за каждого приглашенного пользователя!
    представляем Вам очередное расширение партнерской программы, подробности описаны тут -> ссылка
  • 90% материалов доступно к скачиванию после простой регистрации!
    Если же ты хочешь скачивать материалы без требования оставлять отзывы то получи группу "Новичок", 10 способов повышения описаны тут -> ссылка
  • К сожалению количество битых ссылок растет и мы уже не можем их оперативно восстанавливать поэтому просим помощи у каждого нашего пользователя.
    С сегодняшнего дня, за каждую восстановленную ссылку мы заплатим Вам.
    Подробнее тут -> ссылка
  • Перенесем твои заслуги с другого ресурса!
    Мы понимаем как сложно прокачивать аккаунты на форумах, вроде раскачал аккаунт, а тут появляется ресурс в 100 раз круче но тоже с системой прокачки и снова качать аккаунт...
    Предлагаем вам перенести Ваши заслуги на другом подобном ресурсе к нам.
    Подробности описаны тут -> ссылка
  • Вы можете получать по 2.5% с каждой покупки и продажи на маркете! Подробности в теме Партнёрская программа
Если Вы не хотите скачивать, Вы всегда можетепосмотретьонлайн, просто нажмите кнопку ниже :

Открыть плеер

Torrent_Bot

Торрент-Бот
Бот форума
4 Окт 2016
91
163
20



Информация о фильме
Название: Чернокнижник
Оригинальное название: Warlock
Год выхода: 1989
Жанр: фэнтези, триллер, приключения
Режиссер: Стив Майнер
В ролях: Джулиан Сэндс, Лори Сингер, Ричард Э. Грант, Мэри Воронов, Кевин О’Брайэн, Ричард Касс, Аллан Миллер, Анна Левайн, Дэвид Карпентер, Кэй Е. Кьютер.

О фильме:
Бостон, 1691 год. До казни самого могущественного колдуна-чернокнижника Нового Света остается лишь несколько часов. Но сам дьявол освобождает своего ученика из заточения и переносит его на триста лет вперед, через пространство и время, в современный Лос-Анджелес. Здесь чернокнижник должен найти и соединить три части Великого Гримуара — сатанинской Библии — и раскрыть тайное имя Господа, после чего Земля окажется во власти дьявола. Но на его пути встает охотник на ведьм Жиль Редферн, предавший чернокнижника суду Господню в средневековой Новой Англии и перенесшийся вслед за ним в современный Лос-Анджелес.




Страна: США
Продолжительность: 01:46:07
Перевод: Дубляж, многоголосный, авторский.

Файл
Кодек: h.264
Качество: BDRip-AVC
Видео: MPEG-4, 1080x584, 23.976 fps ~2125 kbps
Звук:
1) HE-AAC 2 ch, 48 kHz ~72 kbps - Дубляж
2) HE-AAC 2 ch, 48 kHz ~72 kbps - MVO [ОРТ]
3) AAC 2 ch, 48 kHz ~160 kbps - AVO [Дохалов]
4) AAC 2 ch, 48 kHz ~160 kbps - AVO [Жучков]
5) HE-AAC 2 ch, 48 kHz ~64 kbps - AVO [Дольский]
6) HE-AAC 2 ch, 48 kHz ~64 kbps - AVO [Карповский]
7) HE-AAC 2 ch, 48 kHz ~64 kbps - AVO [Петербуржец]
8) AAC 2 ch, 48 kHz ~160 kbps - Original
Субтитры: Русские, английские

Media Info:
Скрытый текст
General
Unique ID : 119846105304700903356893514906854763767 (0x5A298531E2D52715B1707083EA082CF7)
Complete name : K:VIDEOЧернокнижник (1989).mkv
Format : Matroska
Format version : Version 4
File size : 2.13 GiB
Duration : 1 h 46 min
Overall bit rate : 2 872 kb/s
Movie name : Warlock (1989) BDRip-AVC от DrVampir
Encoded date : UTC 2019-07-03 18:54:11
Writing application : mkvmerge v35.0.0 ('All The Love In The World') 64-bit
Writing library : libebml v1.3.9 + libmatroska v1.5.2
Cover : Yes
Attachments : Cover.png

Video
ID : 1
Format : AVC
Format/Info : Advanced Video Codec
Format profile : [email protected]
Format settings : CABAC / 12 Ref Frames
Format settings, CABAC : Yes
Format settings, Reference : 12 frames
Codec ID : V_MPEG4/ISO/AVC
Duration : 1 h 43 min
Bit rate : 2 125 kb/s
Width : 1 080 pixels
Height : 584 pixels
Display aspect ratio : 1.85:1
Frame rate mode : Constant
Frame rate : 23.976 (24000/1001) FPS
Color space : YUV
Chroma subsampling : 4:2:0
Bit depth : 8 bits
Scan type : Progressive
Bits/(Pixel*Frame) : 0.141
Stream size : 1.53 GiB (72%)
Title : MPEG-4, 1080x584, 23.976 fps ~2125 kbps
Writing library : x264 core 157 r2935 545de2f
Encoding settings : cabac=1 / ref=12 / deblock=1:-3:-2 / analyse=0x3:0x133 / me=umh / subme=11 / psy=1 / psy_rd=1.00:0.15 / mixed_ref=1 / me_range=56 / chroma_me=1 / trellis=2 / 8x8dct=1 / cqm=0 / deadzone=21,11 / fast_pskip=0 / chroma_qp_offset=-3 / threads=6 / lookahead_threads=1 / sliced_threads=0 / nr=0 / decimate=0 / interlaced=0 / bluray_compat=0 / constrained_intra=0 / bframes=16 / b_pyramid=2 / b_adapt=2 / b_bias=0 / direct=3 / weightb=1 / open_gop=0 / weightp=2 / keyint=240 / keyint_min=24 / scenecut=40 / intra_refresh=0 / rc_lookahead=80 / rc=2pass / mbtree=0 / bitrate=2125 / ratetol=1.0 / qcomp=0.60 / qpmin=0 / qpmax=69 / qpstep=4 / cplxblur=20.0 / qblur=0.5 / vbv_maxrate=62500 / vbv_bufsize=78125 / nal_hrd=none / filler=0 / ip_ratio=1.40 / pb_ratio=1.30 / aq=1:1.00
Language : English
Default : Yes
Forced : No
Color range : Limited
Color primaries : BT.709
Transfer characteristics : BT.709
Matrix coefficients : BT.709

Audio #1
ID : 2
Format : AAC LC SBR
Format/Info : Advanced Audio Codec Low Complexity with Spectral Band Replication
Commercial name : HE-AAC
Format settings : Explicit
Codec ID : A_AAC-2
Duration : 1 h 43 min
Bit rate : 72.0 kb/s
Channel(s) : 2 channels
Channel layout : L R
Sampling rate : 48.0 kHz
Frame rate : 23.438 FPS (2048 SPF)
Compression mode : Lossy
Delay relative to video : 10 ms
Stream size : 53.2 MiB (2%)
Title : HE-AAC 2 ch, 48 kHz ~72 kbps - Дубляж
Language : Russian
Default : Yes
Forced : No

Audio #2
ID : 3
Format : AAC LC SBR
Format/Info : Advanced Audio Codec Low Complexity with Spectral Band Replication
Commercial name : HE-AAC
Format settings : Explicit
Codec ID : A_AAC-2
Duration : 1 h 43 min
Bit rate : 72.0 kb/s
Channel(s) : 2 channels
Channel layout : L R
Sampling rate : 48.0 kHz
Frame rate : 23.438 FPS (2048 SPF)
Compression mode : Lossy
Delay relative to video : 10 ms
Stream size : 53.2 MiB (2%)
Title : HE-AAC 2 ch, 48 kHz ~72 kbps - MVO [ОРТ]
Language : Russian
Default : No
Forced : No

Audio #3
ID : 4
Format : AAC LC
Format/Info : Advanced Audio Codec Low Complexity
Codec ID : A_AAC-2
Duration : 1 h 43 min
Bit rate : 161 kb/s
Channel(s) : 2 channels
Channel layout : L R
Sampling rate : 48.0 kHz
Frame rate : 46.875 FPS (1024 SPF)
Compression mode : Lossy
Delay relative to video : -21 ms
Stream size : 119 MiB (5%)
Title : AAC 2 ch, 48 kHz ~160 kbps - AVO [Дохалов]
Language : Russian
Default : No
Forced : No

Audio #4
ID : 5
Format : AAC LC
Format/Info : Advanced Audio Codec Low Complexity
Codec ID : A_AAC-2
Duration : 1 h 46 min
Bit rate : 160 kb/s
Channel(s) : 2 channels
Channel layout : L R
Sampling rate : 48.0 kHz
Frame rate : 46.875 FPS (1024 SPF)
Compression mode : Lossy
Delay relative to video : -21 ms
Stream size : 121 MiB (6%)
Title : AAC 2 ch, 48 kHz ~160 kbps - AVO [Жучков]
Language : Russian
Default : No
Forced : No

Audio #5
ID : 6
Format : AAC LC SBR
Format/Info : Advanced Audio Codec Low Complexity with Spectral Band Replication
Commercial name : HE-AAC
Format settings : Explicit
Codec ID : A_AAC-2
Duration : 1 h 43 min
Bit rate : 64.0 kb/s
Channel(s) : 2 channels
Channel layout : L R
Sampling rate : 48.0 kHz
Frame rate : 23.438 FPS (2048 SPF)
Compression mode : Lossy
Delay relative to video : 10 ms
Stream size : 47.2 MiB (2%)
Title : HE-AAC 2 ch, 48 kHz ~64 kbps - AVO [Дольский]
Language : Russian
Default : No
Forced : No

Audio #6
ID : 7
Format : AAC LC SBR
Format/Info : Advanced Audio Codec Low Complexity with Spectral Band Replication
Commercial name : HE-AAC
Format settings : Explicit
Codec ID : A_AAC-2
Duration : 1 h 43 min
Bit rate : 64.0 kb/s
Channel(s) : 2 channels
Channel layout : L R
Sampling rate : 48.0 kHz
Frame rate : 23.438 FPS (2048 SPF)
Compression mode : Lossy
Delay relative to video : 10 ms
Stream size : 47.3 MiB (2%)
Title : HE-AAC 2 ch, 48 kHz ~64 kbps - AVO [Карповский]
Language : Russian
Default : No
Forced : No

Audio #7
ID : 8
Format : AAC LC SBR
Format/Info : Advanced Audio Codec Low Complexity with Spectral Band Replication
Commercial name : HE-AAC
Format settings : Explicit
Codec ID : A_AAC-2
Duration : 1 h 43 min
Bit rate : 64.0 kb/s
Channel(s) : 2 channels
Channel layout : L R
Sampling rate : 48.0 kHz
Frame rate : 23.438 FPS (2048 SPF)
Compression mode : Lossy
Delay relative to video : 10 ms
Stream size : 47.2 MiB (2%)
Title : HE-AAC 2 ch, 48 kHz ~64 kbps - AVO [Петербуржец]
Language : Russian
Default : No
Forced : No

Audio #8
ID : 9
Format : AAC LC
Format/Info : Advanced Audio Codec Low Complexity
Codec ID : A_AAC-2
Duration : 1 h 43 min
Bit rate : 161 kb/s
Channel(s) : 2 channels
Channel layout : L R
Sampling rate : 48.0 kHz
Frame rate : 46.875 FPS (1024 SPF)
Compression mode : Lossy
Delay relative to video : -21 ms
Stream size : 119 MiB (5%)
Title : AAC 2 ch, 48 kHz ~160 kbps - Original
Language : English
Default : No
Forced : No

Text #1
ID : 10
Format : ASS
Codec ID : S_TEXT/ASS
Codec ID/Info : Advanced Sub Station Alpha
Duration : 1 h 37 min
Bit rate : 85 b/s
Count of elements : 692
Compression mode : Lossless
Stream size : 61.2 KiB (0%)
Language : Russian
Default : No
Forced : No

Text #2
ID : 11
Format : ASS
Codec ID : S_TEXT/ASS
Codec ID/Info : Advanced Sub Station Alpha
Duration : 1 h 37 min
Bit rate : 70 b/s
Count of elements : 1130
Compression mode : Lossless
Stream size : 49.9 KiB (0%)
Language : English
Default : No
Forced : No

Menu
00:00:00.000 : :00:00:00.000
00:08:24.379 : :00:08:24.379
00:17:57.243 : :00:17:57.243
00:28:02.389 : :00:28:02.389
00:35:42.390 : :00:35:42.390
00:44:23.452 : :00:44:23.452
00:55:50.013 : :00:55:50.013
01:03:12.497 : :01:03:12.497
01:11:49.013 : :01:11:49.013
01:24:11.463 : :01:24:11.463
01:32:18.783 : :01:32:18.783
01:37:37.352 : :01:37:37.351
Скриншоты
 

Вложения

  • 11,6 KB Просмотры: 1
    Личеров 0
    Сидеров 0
    Файлов 1
    Объем 2,1 GB

Привет!

Мы группа людей которые решили помочь другим в решении их проблем, а так же пользователям с поиском самых свежих и качественных инфопродуктов. За 4 с небольшим месяца мы создали этот форум на который заходят ежедневно тысячи человек и посещаемость постоянно растёт. Мы создали панель лицензирования для защиты PHP скриптов от воровства и SEO панель для мониторинга наших сайтов и выбора верной стратегии их развития. Мы надеемся что то что мы создали пригодится Вам и возможно Вы поможете нам развиваться и совершенствоваться вместе с Вами.

Статистика форума

Темы
410.521
Сообщения
469.056
Пользователи
85.937
Новый пользователь
bvcxz88

Приложения форума для iOS и Android


У ркн там нет власти ;)
Приватные разговоры
Помощь Пользователи
    Вы не присоединились ни к одной комнате.