За последнюю неделю опубликовано 48 новых материалов.
Инструкция новичку Путеводитель по форуму Прокси для Telegram Показать подсказки , это бомба!

Скачать Черепашки-ниндзя 2: Тайна изумрудного зелья / Teenage Mutant Ninja Turtles II: The Secret of the Ooze (1991) DVDRip-AVC | P | Fullscreen бесплатно через торрент

  • Поучаствуй (в качестве покупателя) в любых пяти совместных покупках (кроме завершённых и "Моментальных") и получи группу "Новичок" навсегда -> ссылка на раздел
  • Получай до 480 рублей за каждого приглашенного пользователя!
    представляем Вам очередное расширение партнерской программы, подробности описаны тут -> ссылка
  • 90% материалов доступно к скачиванию после простой регистрации!
    Если же ты хочешь скачивать материалы без требования оставлять отзывы то получи группу "Новичок", 10 способов повышения описаны тут -> ссылка
  • К сожалению количество битых ссылок растет и мы уже не можем их оперативно восстанавливать поэтому просим помощи у каждого нашего пользователя.
    С сегодняшнего дня, за каждую восстановленную ссылку мы заплатим Вам.
    Подробнее тут -> ссылка
  • Перенесем твои заслуги с другого ресурса!
    Мы понимаем как сложно прокачивать аккаунты на форумах, вроде раскачал аккаунт, а тут появляется ресурс в 100 раз круче но тоже с системой прокачки и снова качать аккаунт...
    Предлагаем вам перенести Ваши заслуги на другом подобном ресурсе к нам.
    Подробности описаны тут -> ссылка
  • Вы можете получать по 2.5% с каждой покупки и продажи на маркете! Подробности в теме Партнёрская программа
Если Вы не хотите скачивать, Вы всегда можетепосмотретьонлайн, просто нажмите кнопку ниже :

Открыть плеер

Torrent_Bot

Торрент-Бот
Бот форума
4 Окт 2016
93
160
20



Название: Черепашки-ниндзя 2: Тайна изумрудного зелья
Оригинальное название: Teenage Mutant Ninja Turtles II: The Secret of the Ooze
Год выхода: 1991
Жанр: боевик, фантастика, комедия
Режиссер: Майкл Прессман
В ролях: Пейдж Турко, Дэвид Уорнер, Мишлен Систи, Лейф Тильден, Кенн Скотт, Эрни Рейес мл., Марк Казо, Тоширо Обата, Кевин Клэш, Франсуа Чау, Робби Рист, Брайан Точи, Лори Фасо, Кевин Нэш, Адам Карл, Фрэнк Уэлкер

О фильме:
После победы над Шреддером черепашки-ниндзя живут в городской квартире Эйприл, неспеша подыскивают новый дом и пачками заказывают пиццу. Однажды Эйприл делает репортаж о компании TGRI. Сплинтер показывает черепашкам разбитый контейнер с надписью TGRI, в котором содержался мутаген, сделавший их мутантами. В это время на свалке из кучи мусора выбирается Шреддер. Клан Фут похищает профессора Джордана Перри и последний контейнер с мутагеном. Шреддер заставляет профессора создать из черепахи и волка мутантов Токка и Разара. Черепашкам предстоит вновь сразиться со Шреддером и остановить распростанение мутагена.



Страна: США, Гонконг
Продолжительность: 01:28:30
Перевод: Профессиональный (многоголосый закадровый)

Формат: MKV
Качество: DVDRip-AVC
Видео: AVC/H.264, 708x480(4:3)@708x540, 23.976 fps, ~2168 Kbps
Аудио 1: AC3, 2 ch, 192 kbps - Русский (MVO R5)
Аудио 2: AC3, 6 ch, 384 kbps - Английский (отдельно)
Субтитры: русские, английские

MediaInfo
General
Unique ID : 169460939542098222502189121004059001237 (0x7F7CFD62AB246596A6051019F9588195)
Complete name : D:Черепашки-ниндзя 2 (1991) DVDRip-AVC FullscreenЧерепашки-ниндзя 2 - Тайна изумрудного зелья (1991).mkv
Format : Matroska
Format version : Version 4 / Version 2
File size : 1.46 GiB
Duration : 1 h 28 min
Overall bit rate : 2 358 kb/s
Encoded date : UTC 2018-07-16 10:08:15
Writing application : mkvmerge v25.0.0 ('Prog Noir') 64-bit
Writing library : libebml v1.3.6 + libmatroska v1.4.9

Video
ID : 1
Format : AVC
Format/Info : Advanced Video Codec
Format profile : [email protected]
Format settings, CABAC : Yes
Format settings, ReFrames : 8 frames
Codec ID : V_MPEG4/ISO/AVC
Duration : 1 h 28 min
Bit rate : 2 168 kb/s
Width : 708 pixels
Height : 480 pixels
Display aspect ratio : 4:3
Frame rate mode : Constant
Frame rate : 23.976 (24000/1001) FPS
Color space : YUV
Chroma subsampling : 4:2:0
Bit depth : 8 bits
Scan type : Progressive
Bits/(Pixel*Frame) : 0.266
Stream size : 1.34 GiB (92%)
Writing library : x264 core 155 r2901 7d0ff22
Encoding settings : cabac=1 / ref=8 / deblock=1:-2:-2 / analyse=0x3:0x133 / me=umh / subme=9 / psy=1 / psy_rd=1.00:0.20 / mixed_ref=1 / me_range=32 / chroma_me=1 / trellis=2 / 8x8dct=1 / cqm=0 / deadzone=21,11 / fast_pskip=0 / chroma_qp_offset=-3 / threads=3 / lookahead_threads=1 / sliced_threads=0 / nr=0 / decimate=0 / interlaced=0 / bluray_compat=0 / constrained_intra=0 / bframes=9 / b_pyramid=2 / b_adapt=2 / b_bias=0 / direct=3 / weightb=1 / open_gop=0 / weightp=2 / keyint=240 / keyint_min=23 / scenecut=40 / intra_refresh=0 / rc=2pass / mbtree=0 / bitrate=2168 / ratetol=1.0 / qcomp=0.60 / qpmin=0 / qpmax=69 / qpstep=4 / cplxblur=20.0 / qblur=0.5 / ip_ratio=1.40 / pb_ratio=1.30 / aq=1:0.90
Default : Yes
Forced : No

Audio
ID : 2
Format : AC-3
Format/Info : Audio Coding 3
Format settings, Endianness : Big
Codec ID : A_AC3
Duration : 1 h 28 min
Bit rate mode : Constant
Bit rate : 192 kb/s
Channel(s) : 2 channels
Channel positions : Front: L R
Sampling rate : 48.0 kHz
Frame rate : 31.250 FPS (1536 spf)
Bit depth : 16 bits
Compression mode : Lossy
Stream size : 122 MiB (8%)
Title : MVO R5
Language : Russian
Service kind : Complete Main
Default : Yes
Forced : No

Text #1
ID : 3
Format : UTF-8
Codec ID : S_TEXT/UTF8
Codec ID/Info : UTF-8 Plain Text
Duration : 1 h 21 min
Bit rate : 78 b/s
Count of elements : 941
Stream size : 46.8 KiB (0%)
Language : Russian
Default : No
Forced : No

Text #2
ID : 4
Format : UTF-8
Codec ID : S_TEXT/UTF8
Codec ID/Info : UTF-8 Plain Text
Duration : 1 h 27 min
Bit rate : 61 b/s
Count of elements : 1358
Stream size : 39.4 KiB (0%)
Language : English
Default : No
Forced : No
Сравнения:


Скриншоты
 

Вложения

  • 18,1 KB Просмотры: 0
    Личеров 0
    Сидеров 0
    Файлов 2
    Объем 1,7 GB

Привет!

Мы группа людей которые решили помочь другим в решении их проблем, а так же пользователям с поиском самых свежих и качественных инфопродуктов. За 4 с небольшим месяца мы создали этот форум на который заходят ежедневно тысячи человек и посещаемость постоянно растёт. Мы создали панель лицензирования для защиты PHP скриптов от воровства и SEO панель для мониторинга наших сайтов и выбора верной стратегии их развития. Мы надеемся что то что мы создали пригодится Вам и возможно Вы поможете нам развиваться и совершенствоваться вместе с Вами.

Статистика форума

Темы
406.640
Сообщения
465.116
Пользователи
84.573
Новый пользователь
sobolsm

Приложения форума для iOS и Android


У ркн там нет власти ;)
Приватные разговоры
Помощь Пользователи
    Вы не присоединились ни к одной комнате.