За последнюю неделю опубликовано 171 новых материалов.
Инструкция новичку Путеводитель по форуму Прокси для Telegram Показать подсказки , это бомба!

Скачать Чемпионы (2014) DVD5 бесплатно через торрент

  • Поучаствуй (в качестве покупателя) в любых пяти совместных покупках (кроме завершённых и "Моментальных") и получи группу "Новичок" навсегда -> ссылка на раздел
  • Получай до 480 рублей за каждого приглашенного пользователя!
    представляем Вам очередное расширение партнерской программы, подробности описаны тут -> ссылка
  • 90% материалов доступно к скачиванию после простой регистрации!
    Если же ты хочешь скачивать материалы без требования оставлять отзывы то получи группу "Новичок", 10 способов повышения описаны тут -> ссылка
  • К сожалению количество битых ссылок растет и мы уже не можем их оперативно восстанавливать поэтому просим помощи у каждого нашего пользователя.
    С сегодняшнего дня, за каждую восстановленную ссылку мы заплатим Вам.
    Подробнее тут -> ссылка
  • Перенесем твои заслуги с другого ресурса!
    Мы понимаем как сложно прокачивать аккаунты на форумах, вроде раскачал аккаунт, а тут появляется ресурс в 100 раз круче но тоже с системой прокачки и снова качать аккаунт...
    Предлагаем вам перенести Ваши заслуги на другом подобном ресурсе к нам.
    Подробности описаны тут -> ссылка
  • Вы можете получать по 2.5% с каждой покупки и продажи на маркете! Подробности в теме Партнёрская программа
Если Вы не хотите скачивать, Вы всегда можетепосмотретьонлайн, просто нажмите кнопку ниже :

Открыть плеер

Torrent_Bot

Торрент-Бот
Бот форума
4 Окт 2016
124
96
20
«Победы, которые у нас уже есть»



Год выпуска: 2014
Производство: Россия / Enjoy Movies, Renovatio ent.
Жанр:Спорт, драма
Перевод: Не требуется (Русский язык)
Субтитры: Отсутствуют

Режиссер: Алексей Вакулов, Артем Аксененко, Дмитрий Дюжев
Актеры: Андрей Смоляков, Марк Богатырев, Андрей Федорцов, Михаил Горевой, Дмитрий Губерниев, Таисия Вилкова, Александр Молочников, Максим Виторган, Светлана Ходченкова, Ольга Тумайкина, Алексей Чадов, Игорь Верник, Константин Крюков, Татьяна Арнтгольц, Екатерина Климова, Виктор Гусев

Описание фильма:
Пять реальных историй больших побед российских спортсменов. И за каждой победой стоят человеческие истории, в которых переплетаются любовь, предательство, дружба, уважение, труд и вера. Вера в себя, вера в победу.


825cdc7d046dd1e7eec42e5007891844.gif902812bbed19b778276d1784e07f52b8.png
Дата мировой премьеры: 23 января 2014
Дата российской премьеры: 23 января 2014, «Каропрокат»
Дата выхода DVD/Blu-Ray релиза: 18 февраля 2014, «Lizard Cinema Trade»
Продолжительность: 01:34:07
Качество видео: DVD5

Видео: MPEG-2, 720x576@1024x576 (PAL 16:9), ~5856 Кбит/сек
Аудио: AC3 5.1, 448 Кбит/сек [Русский]
Отчёт DVDInfo:
Title: Локальный диск
Size: 4.36 Gb ( 4 571 506 KBytes ) - DVD-5
Enabled regions: 1, 2, 3, 4, 5, 6, 7, 8

VTS_01 :
Play Length:
Video: PAL 4:3 (720x576) VBR
Audio:
Russian (Dolby AC3, 6 ch)
English (Dolby AC3, 6 ch)
English (Dolby AC3, 6 ch)

VTS_02 :
Play Length: 01:34:07
Video: PAL 16:9 (720x576) VBR, Auto Pan&Scan, Auto Letterboxed
Audio:
Russian (Dolby AC3, 6 ch)

Menu Video:
NTSC 4:3 (720x480) VBR
Auto Pan&Scan, Auto Letterboxed
Menu English Language Unit :
Root Menu
Chapter (PTT) Menu
Audio Menu
Отчёт MediaInfo:
Общее
Полное имя : D:ВидеоЧемпионы (2014) DVD5VIDEO_TSVTS_02_2.VOB
Формат : MPEG-PS
Размер файла : 1024 Мбайт
Продолжительность : 22 м.
Режим общего битрейта : Переменный
Общий поток : 6432 Кбит/сек

Видео
Идентификатор : 224 (0xE0)
Формат : MPEG Video
Версия формата : Version 2
Профиль формата : Main@Main
Параметр BVOP формата : Да
Параметр матрицы формата : Выборочная
Параметр GOP формата : Variable
Продолжительность : 22 м.
Вид битрейта : Переменный
Битрейт : 5856 Кбит/сек
Максимальный битрейт : 8500 Кбит/сек
Ширина : 720 пикселей
Высота : 576 пикселей
Соотношение сторон : 16:9
Частота кадров : 25,000 кадров/сек
Стандарт вещания : PAL
Цветовое пространство : YUV
Субдискретизация насыщенности : 4:2:0
Битовая глубина : 8 бит
Тип развёртки : Прогрессивная
Метод сжатия : С потерями
Бит/(Пиксели*Кадры) : 0.565
Временной код первого кадра : 01:22:26:15
Оригинал временного кода : Group of pictures header
Размер потока : 932 Мбайт (91%)

Аудио
Идентификатор : 189 (0xBD)-128 (0x80)
Формат : AC-3
Формат/Информация : Audio Coding 3
Расширение режима : CM (complete main)
Параметр Endianness формата : Big
Режим смешивания : DVD-Video
Продолжительность : 22 м.
Вид битрейта : Постоянный
Битрейт : 448 Кбит/сек
Каналы : 6 каналов
Расположение каналов : Front: L C R, Side: L R, LFE
Частота : 48,0 КГц
Битовая глубина : 16 бит
Метод сжатия : С потерями
Задержка видео : -264 мс.
Размер потока : 71,3 Мбайт (7%)

Меню
Доп. информация:
Видео не сжималось!
Удалены: реклама, предупреждения и заставки, аудиодорожка DTS.
Меню: частично анимированное, недействующие кнопки затерты и закрыты.
Обработка: DVD ReMake Pro + Работа с меню (Adobe PhotoShop и MuxMan).
Скриншоты меню:
f22e7afbbe734008ee3acd3049e1c2d1.pngb5ad396fdc4641e963c2439ed2aa3fc8.png

Скриншоты:
0fdf08b0cdeaaa1b34e8656f1893d8b9.png9d13aec79483f778a422168bc52d5d65.png4079e57b4384cc4d878388eb8000681d.png5bd2a1135920039d8642fda981d8e7eb.png9b9e2459b42e712548c9c21b727d83f2.png
За DVD5 спасибо большое Lelya_K ®
 

Вложения

Ваш e-mail не будет опубликован. Он потребуется для подтверждения Вашего поста.
Оформление текста Нажмите «Ввод», чтобы отправить ответ.

Привет!

Мы группа людей которые решили помочь другим в решении их проблем, а так же пользователям с поиском самых свежих и качественных инфопродуктов. За 4 с небольшим месяца мы создали этот форум на который заходят ежедневно тысячи человек и посещаемость постоянно растёт. Мы создали панель лицензирования для защиты PHP скриптов от воровства и SEO панель для мониторинга наших сайтов и выбора верной стратегии их развития. Мы надеемся что то что мы создали пригодится Вам и возможно Вы поможете нам развиваться и совершенствоваться вместе с Вами.

Статистика форума

Темы
380.675
Сообщения
420.280
Пользователи
50.623
Новый пользователь
346444444

Приложения форума для iOS и Android


У ркн там нет власти ;)
Приватные разговоры
Помощь Пользователи
    Вы не присоединились ни к одной комнате.