За последнюю неделю опубликовано 172 новых материалов.
Инструкция новичку Путеводитель по форуму Прокси для Telegram Показать подсказки , это бомба!

Скачать Человек-паук / Spider-Man (2002) UHD BDRip-HEVC 1080p от HEVC-CLUB | Лицензия бесплатно через торрент

  • Поучаствуй (в качестве покупателя) в любых пяти совместных покупках (кроме завершённых и "Моментальных") и получи группу "Новичок" навсегда -> ссылка на раздел
  • Получай до 480 рублей за каждого приглашенного пользователя!
    представляем Вам очередное расширение партнерской программы, подробности описаны тут -> ссылка
  • 90% материалов доступно к скачиванию после простой регистрации!
    Если же ты хочешь скачивать материалы без требования оставлять отзывы то получи группу "Новичок", 10 способов повышения описаны тут -> ссылка
  • К сожалению количество битых ссылок растет и мы уже не можем их оперативно восстанавливать поэтому просим помощи у каждого нашего пользователя.
    С сегодняшнего дня, за каждую восстановленную ссылку мы заплатим Вам.
    Подробнее тут -> ссылка
  • Перенесем твои заслуги с другого ресурса!
    Мы понимаем как сложно прокачивать аккаунты на форумах, вроде раскачал аккаунт, а тут появляется ресурс в 100 раз круче но тоже с системой прокачки и снова качать аккаунт...
    Предлагаем вам перенести Ваши заслуги на другом подобном ресурсе к нам.
    Подробности описаны тут -> ссылка
  • Вы можете получать по 2.5% с каждой покупки и продажи на маркете! Подробности в теме Партнёрская программа
Если Вы не хотите скачивать, Вы всегда можетепосмотретьонлайн, просто нажмите кнопку ниже :

Открыть плеер

Torrent_Bot

Торрент-Бот
Бот форума
4 Окт 2016
124
94
20


Название: Человек-паук
Оригинальное название: Spider-Man
Год выхода: 2002
Производство: США / Columbia Pictures Corporation, Marvel Enterprises, Laura Ziskin Productions
Жанр:Фантастика, боевик, приключения
Продолжительность: 02:01:12

Режиссер: Сэм Рэйми
В ролях: Тоби Магуайр, Уиллем Дефо, Кирстен Данст, Джеймс Франко, Клифф Робертсон, Розмари Харрис, Дж.К. Симмонс, Джо Манганьелло, Майкл Пападжон, Билл Нанн, Джерри Бекер, Джек Беттс, Стенли Андерсон, Рон Перкинс, К.К. Доддс, Тед Рэйми, Брюс Кэмпбелл, Элизабет Бэнкс, Джон Пэкстон, Тим Де Зарн, Тейлор Гилберт, Рэнди Сэвидж, Ларри Джошуа, Тимоти Патрик Куилл, Лиза Даниэль, Натали Т. Ео, Эрика Д. Портер, Кристен Дэвидсон, Джейсон Пэджетт, Шан Омар Хьюи, Сэлли Ливингстоун, Ивэн Арнольд, Джилл Сейр, Джеймс Кевин Уорд, Дэвид Холкомб, Октавия Спенсер, Брэд Грюнберг, Шэйн Хабберстэд, Дебора Вэйкхэм

Описание: Питер - скромный, талантливый старшеклассник, заканчивает школу. Он кажется настолько нелепым и неуклюжим, что его совсем не страшно обидеть. Но однажды, во время школьной экскурсии в местный университет, Питера укусил паук. Это был один из подопытных супер-пауков, с изменённой ДНК. Домой он едва пришёл и, упав на кровать, потерял сознание. А когда очнулся, почувствовал себя необычайно бодрым и, сразу одев по привычке очки, обнаружил, что ничего не видит... Зато без них он видел великолепно! А мышцы! Он с наслаждением разглядывал в зеркале бицепсы и кубики, украшавшие теперь его торс. И это были ещё не все изменения, которые он в себе открыл после укуса...

Качество: UHD BDRip-HEVC 1080p
Видео: HEVC/x.265, 1920x1038, ~15,2 Mbps, 10 bit
Аудио 01: AC3, 6 ch, 640 Kbps | Русский, Дублированный
Аудио 02: AC3, 6 ch, 640 Kbps | Английский, Оригинал
Субтитры: Русские (полные), английские (полные)
Навигация по главам: Есть



Релиз от: M@kSIMus

Медиаинфо
Формат : Matroska
Версия формата : Version 4
Размер файла : 13,9 Гбайт
Продолжительность : 2 ч. 1 м.
Общий поток : 16,4 Мбит/сек
Название фильма : Spider-Man (2002) Encoded_by_M@kSIMus
Дата кодирования : UTC 2020-01-03 05:59:53
Программа кодирования : mkvmerge v40.0.0 ('Old Town Road + Pony') 64-bit
Библиотека кодирования : libebml v1.3.9 + libmatroska v1.5.2
Обложка : Yes
Attachments : cover1.jpg

Видео
Идентификатор : 1
Формат : HEVC
Формат/Информация : High Efficiency Video Coding
Профиль формата : Main 10@L4.1@High
Идентификатор кодека : V_MPEGH/ISO/HEVC
Продолжительность : 2 ч. 1 м.
Битрейт : 15,2 Мбит/сек
Ширина : 1920 пикселей
Высота : 1038 пикселей
Соотношение сторон : 1,85:1
Режим частоты кадров : Постоянный
Частота кадров : 23,976 (24000/1001) кадра/сек
Цветовое пространство : YUV
Субдискретизация насыщенности : 4:2:0
Битовая глубина : 10 бит
Бит/(Пиксели*Кадры) : 0.317
Размер потока : 12,8 Гбайт (92%)
Библиотека кодирования : x265 3.2+5-354901970679:[Windows][clang 8.0.1][64 bit] 10bit
Настройки программы : cpuid=1049583 / frame-threads=5 / numa-pools=4 / wpp / no-pmode / no-pme / no-psnr / no-ssim / log-level=3 / input-csp=1 / input-res=1920x1038 / interlace=0 / total-frames=0 / level-idc=41 / high-tier=1 / uhd-bd=0 / ref=5 / allow-non-conformance / no-repeat-headers / annexb / no-aud / no-hrd / info / hash=0 / no-temporal-layers / open-gop / min-keyint=24 / keyint=240 / gop-lookahead=0 / bframes=12 / b-adapt=2 / b-pyramid / bframe-bias=0 / rc-lookahead=40 / lookahead-slices=6 / scenecut=40 / radl=0 / no-splice / no-intra-refresh / ctu=32 / min-cu-size=8 / rect / no-amp / max-tu-size=32 / tu-inter-depth=4 / tu-intra-depth=4 / limit-tu=1 / rdoq-level=1 / dynamic-rd=0.00 / no-ssim-rd / signhide / no-tskip / nr-intra=0 / nr-inter=0 / no-constrained-intra / no-strong-intra-smoothing / max-merge=5 / limit-refs=1 / no-limit-modes / me=3 / subme=7 / merange=57 / temporal-mvp / no-frame-dup / no-hme / weightp / no-weightb / no-analyze-src-pics / deblock=-3:-3 / no-sao / no-sao-non-deblock / rd=4 / selective-sao=0 / early-skip / no-rskip / no-fast-intra / no-tskip-fast / no-cu-lossless / b-intra / no-splitrd-skip / rdpenalty=0 / psy-rd=2.00 / psy-rdoq=1.00 / no-rd-refine / no-lossless / cbqpoffs=0 / crqpoffs=0 / rc=crf / crf=22.0 / qcomp=0.60 / qpstep=4 / stats-write=0 / stats-read=0 / vbv-maxrate=50000 / vbv-bufsize=50000 / vbv-init=0.9 / crf-max=0.0 / crf-min=0.0 / ipratio=1.40 / pbratio=1.30 / aq-mode=3 / aq-strength=1.00 / no-cutree / zone-count=0 / no-strict-cbr / qg-size=32 / no-rc-grain / qpmax=69 / qpmin=0 / no-const-vbv / sar=1 / overscan=0 / videoformat=5 / range=0 / colorprim=1 / transfer=1 / colormatrix=1 / chromaloc=0 / display-window=0 / cll=0,0 / min-luma=0 / max-luma=1023 / log2-max-poc-lsb=8 / vui-timing-info / vui-hrd-info / slices=1 / no-opt-qp-pps / no-opt-ref-list-length-pps / no-multi-pass-opt-rps / scenecut-bias=0.05 / no-opt-cu-delta-qp / no-aq-motion / no-hdr / no-hdr-opt / no-dhdr10-opt / no-idr-recovery-sei / analysis-reuse-level=5 / scale-factor=0 / refine-intra=0 / refine-inter=0 / refine-mv=1 / refine-ctu-distortion=0 / no-limit-sao / ctu-info=0 / no-lowpass-dct / refine-analysis-type=0 / copy-pic=1 / max-ausize-factor=1.0 / no-dynamic-refine / no-single-sei / no-hevc-aq / no-svt / no-field / qp-adaptation-range=1.00
Язык : English
Default : Да
Forced : Нет
Цветовой диапазон : Limited
Основные цвета : BT.709
Характеристики трансфера : BT.709
Коэффициенты матрицы : BT.709

Аудио #1
Идентификатор : 2
Формат : AC-3
Формат/Информация : Audio Coding 3
Коммерческое название : Dolby Digital
Идентификатор кодека : A_AC3
Продолжительность : 2 ч. 1 м.
Вид битрейта : Постоянный
Битрейт : 640 Кбит/сек
Каналы : 6 каналов
ChannelLayout : L R C LFE Ls Rs
Частота : 48,0 КГц
Частота кадров : 31,250 кадров/сек (1536 SPF)
Битовая глубина : 16 бит
Метод сжатия : С потерями
Размер потока : 555 Мбайт (4%)
Заголовок : Дубляж (Blu-Ray)
Язык : Russian
Default : Да
Forced : Нет

Аудио #2
Идентификатор : 3
Формат : AC-3
Формат/Информация : Audio Coding 3
Коммерческое название : Dolby Digital
Идентификатор кодека : A_AC3
Продолжительность : 2 ч. 1 м.
Вид битрейта : Постоянный
Битрейт : 640 Кбит/сек
Каналы : 6 каналов
ChannelLayout : L R C LFE Ls Rs
Частота : 48,0 КГц
Частота кадров : 31,250 кадров/сек (1536 SPF)
Битовая глубина : 16 бит
Метод сжатия : С потерями
Размер потока : 555 Мбайт (4%)
Заголовок : Оригинал
Язык : English
Default : Нет
Forced : Нет

Текст #1
Идентификатор : 4
Формат : UTF-8
Идентификатор кодека : S_TEXT/UTF8
Идентификатор кодека/Информация : UTF-8 Plain Text
Продолжительность : 1 ч. 54 м.
Битрейт : 85 бит/сек
ElementCount : 1211
Размер потока : 71,7 Кбайт (0%)
Заголовок : Full
Язык : Russian
Default : Нет
Forced : Нет

Текст #2
Идентификатор : 5
Формат : UTF-8
Идентификатор кодека : S_TEXT/UTF8
Идентификатор кодека/Информация : UTF-8 Plain Text
Продолжительность : 1 ч. 58 м.
Битрейт : 47 бит/сек
ElementCount : 1225
Размер потока : 40,8 Кбайт (0%)
Заголовок : Full
Язык : English
Default : Нет
Forced : Нет

Меню
00:00:00.000 : :Opening Credits
00:06:29.472 : :Columbia University Research Lab
00:14:56.187 : :Norman Tests the Performance Enhancers
00:21:53.604 : :Great Reflexes
00:25:18.767 : :Scaling the Heights
00:34:35.114 : :With Great Power...
00:40:22.170 : :The Wrestling Match
00:43:13.883 : :The Death of Uncle Ben
00:54:32.978 : :Spider-Man to the Rescue
01:00:48.937 : :peter's Photos of Spider-Man
01:04:20.774 : :World Unity Festival
01:12:12.370 : :Norman Meets the Goblin
01:19:35.521 : :The Alley Kiss
01:25:13.608 : :Thanksgiving Dinner
01:39:36.679 : :The Queensboro Bridge
01:45:08.385 : :Don't Tell Harry
Скриншоты


 

Вложения

  • 36,7 KB Просмотры: 0
    Личеров 0
    Сидеров 0
    Файлов 1
    Объем 13,9 GB
Ваш e-mail не будет опубликован. Он потребуется для подтверждения Вашего поста.
Оформление текста Нажмите «Ввод», чтобы отправить ответ.

Привет!

Мы группа людей которые решили помочь другим в решении их проблем, а так же пользователям с поиском самых свежих и качественных инфопродуктов. За 4 с небольшим месяца мы создали этот форум на который заходят ежедневно тысячи человек и посещаемость постоянно растёт. Мы создали панель лицензирования для защиты PHP скриптов от воровства и SEO панель для мониторинга наших сайтов и выбора верной стратегии их развития. Мы надеемся что то что мы создали пригодится Вам и возможно Вы поможете нам развиваться и совершенствоваться вместе с Вами.

Статистика форума

Темы
378.752
Сообщения
418.035
Пользователи
49.737
Новый пользователь
slava105

Приложения форума для iOS и Android


У ркн там нет власти ;)
Приватные разговоры
Помощь Пользователи
    Вы не присоединились ни к одной комнате.