За последнюю неделю опубликовано 34 новых материалов.
Инструкция новичку Путеводитель по форуму Прокси для Telegram Показать подсказки , это бомба!

Скачать Человек-паук 2 / Spider-Man 2 (2004) UHD BDRemux 2160p | 4K | HDR | D, A | Theatrical Cut бесплатно через торрент

  • Поучаствуй (в качестве покупателя) в любых пяти совместных покупках (кроме завершённых и "Моментальных") и получи группу "Новичок" навсегда -> ссылка на раздел
  • Получай до 480 рублей за каждого приглашенного пользователя!
    представляем Вам очередное расширение партнерской программы, подробности описаны тут -> ссылка
  • 90% материалов доступно к скачиванию после простой регистрации!
    Если же ты хочешь скачивать материалы без требования оставлять отзывы то получи группу "Новичок", 10 способов повышения описаны тут -> ссылка
  • К сожалению количество битых ссылок растет и мы уже не можем их оперативно восстанавливать поэтому просим помощи у каждого нашего пользователя.
    С сегодняшнего дня, за каждую восстановленную ссылку мы заплатим Вам.
    Подробнее тут -> ссылка
  • Перенесем твои заслуги с другого ресурса!
    Мы понимаем как сложно прокачивать аккаунты на форумах, вроде раскачал аккаунт, а тут появляется ресурс в 100 раз круче но тоже с системой прокачки и снова качать аккаунт...
    Предлагаем вам перенести Ваши заслуги на другом подобном ресурсе к нам.
    Подробности описаны тут -> ссылка
  • Вы можете получать по 2.5% с каждой покупки и продажи на маркете! Подробности в теме Партнёрская программа
Если Вы не хотите скачивать, Вы всегда можетепосмотретьонлайн, просто нажмите кнопку ниже :

Открыть плеер

Torrent_Bot

Торрент-Бот
Бот форума
4 Окт 2016
93
160
20



Название: Человек-паук 2
Оригинальное название: Spider-Man 2
Год выхода: 2004
Жанр: Фантастика, боевик, приключения
Режиссер: Сэм Рэйми
В ролях: Тоби Магуайр, Кирстен Данст, Джеймс Франко, Альфред Молина, Розмари Харрис, Дж.К. Симмонс, Донна Мерфи, Дэниэл Гиллис, Дилан Бейкер, Билл Нанн

О фильме:
С момента событий, произошедших в первом фильме, прошло два года. Тихоня Питер Паркер сталкивается с новыми проблемами: он борется со своим «даром и проклятьем», отчаянно пытаясь балансировать на грани двух своих жизней: метающего паутину супергероя Человека-Паука и обычного студента колледжа… Мучимый своими секретами, Питер понимает, что его отношения со всеми, кто ему дорог, в опасности или заходят в тупик. Его любовь к Мэри Джейн становится еще сильнее, обостряемая порывом Питера раскрыть ей свой секрет и признаться в любви. Дружба с Гарри осложняется горечью молодого Осборна по умершему отцу и всё большим желанием отомстить Человеку-Пауку. Даже любимая тетушка Мэй, у которой были нелегкие времена после смерти дяди Бена, начинает что-то подозревать насчет своего племянника. Жизнь Питера становится еще более сложной, когда он сталкивается с новым суперзлодеем — доктором Отто Октавиусом. Питер должен использовать все свои суперспособности, чтобы одолеть этого жестокого безумца с восемью конечностями…



Страна: США
Студия: Columbia Pictures Corporation, Laura Ziskin Production, Marvel Enterprises
Продолжительность: 02:07:28
Перевод: Профессиональный (Дублированный), профессиональный (двухголосый закадровый), авторский (одноголосый закадровый)

Качество: UHD BDRemux 2160p
Контейнер: MKV
Видео: MPEG-H HEVC Video / 48165 kbps / 3840x2160 / 23.976 fps / 16:9 / Main 10 Profile 5.1 High / 4:2:0 / 10 bits / HDR / BT.2020 /
Аудио 1: Russian AC3 / 5.1 / 48 kHz / 448 kbps / 16 bits |Dub, Blu-Ray|
Аудио 2: Russian AC3 / 5.1 / 48 kHz / 448 kbps / 16 bits |DVO, Tycoon Studio|
Аудио 3: Russian DTS / 5.1 / 48 kHz / 755 kbps / 24 bits |В. Королёв|
Аудио 4: Russian DTS-HD Master Audio / 7.1 / 48 kHz / 4435 kbps / 24-bit (DTS Core: 5.1 / 48 kHz / 1509 kbps / 24-bit) |А. Гаврилов|
Аудио 5: English DTS-HD Master Audio / 7.1 / 48 kHz / 4108 kbps / 24-bit (DTS Core: 5.1 / 48 kHz / 1509 kbps / 24-bit) |original|

MediaInfo
Общее
Уникальный идентификатор : 253948265827180947180994045991823721410 (0xBF0CA82DC17AA41FE99BD003413DC3C2)
Полное имя : H:UHDЧеловек-паук 2.2004.UHD.Blu-Ray.Remux.2160p.mkv
Формат : Matroska
Версия формата : Version 4 / Version 2
Размер файла : 52,0 Гбайт
Продолжительность : 2 ч. 7 м.
Общий поток : 58,4 Мбит/сек
Дата кодирования : UTC 2018-01-27 22:33:37
Программа кодирования : mkvmerge v20.0.0 ('I Am The Sun') 64-bit
Библиотека кодирования : libebml v1.3.5 + libmatroska v1.4.8
Attachments : poster.jpg

Видео
Идентификатор : 1
Формат : HEVC
Формат/Информация : High Efficiency Video Coding
Профиль формата : Main [email protected]@High
Идентификатор кодека : V_MPEGH/ISO/HEVC
Продолжительность : 2 ч. 7 м.
Битрейт : 48,2 Мбит/сек
Ширина : 3840 пикселей
Высота : 2160 пикселей
Соотношение сторон : 16:9
Режим частоты кадров : Постоянный
Частота кадров : 23,976 (24000/1001) кадра/сек
Цветовое пространство : YUV
Субдискретизация насыщенности : 4:2:0 (Type 2)
Битовая глубина : 10 бит
Бит/(Пиксели*Кадры) : 0.242
Размер потока : 42,9 Гбайт (83%)
Default : Да
Forced : Нет
Цветовой диапазон : Limited
Основные цвета : BT.2020
Характеристики трансфера : PQ
Коэффициенты матрицы : BT.2020 non-constant
MasteringDisplay_ColorPrimaries : Display P3
MasteringDisplay_Luminance : min: 0.0050 cd/m2, max: 4000 cd/m2
MaxCLL : 4471 cd/m2
MaxFALL : 1007 cd/m2

Аудио #1
Идентификатор : 2
Формат : AC-3
Формат/Информация : Audio Coding 3
Идентификатор кодека : A_AC3
Продолжительность : 2 ч. 7 м.
Вид битрейта : Постоянный
Битрейт : 448 Кбит/сек
Каналы : 6 каналов
Расположение каналов : Front: L C R, Side: L R, LFE
Частота : 48,0 КГц
Частота кадров : 31,250 кадров/сек (1536 SPF)
Битовая глубина : 16 бит
Метод сжатия : С потерями
Размер потока : 408 Мбайт (1%)
Заголовок : Dub, Blu-Ray
Язык : Russian
ServiceKind/String : Complete Main
Default : Да
Forced : Нет

Аудио #2
Идентификатор : 3
Формат : AC-3
Формат/Информация : Audio Coding 3
Идентификатор кодека : A_AC3
Продолжительность : 2 ч. 7 м.
Вид битрейта : Постоянный
Битрейт : 448 Кбит/сек
Каналы : 6 каналов
Расположение каналов : Front: L C R, Side: L R, LFE
Частота : 48,0 КГц
Частота кадров : 31,250 кадров/сек (1536 SPF)
Битовая глубина : 16 бит
Метод сжатия : С потерями
Размер потока : 408 Мбайт (1%)
Заголовок : DVO, Tycoon Studio
Язык : Russian
ServiceKind/String : Complete Main
Default : Нет
Forced : Нет

Аудио #3
Идентификатор : 4
Формат : DTS
Формат/Информация : Digital Theater Systems
Идентификатор кодека : A_DTS
Продолжительность : 2 ч. 7 м.
Вид битрейта : Постоянный
Битрейт : 755 Кбит/сек
Каналы : 6 каналов
Расположение каналов : Front: L C R, Side: L R, LFE
Частота : 48,0 КГц
Частота кадров : 93,750 кадра/сек (512 SPF)
Битовая глубина : 24 бит
Метод сжатия : С потерями
Размер потока : 688 Мбайт (1%)
Заголовок : В. Королёв
Язык : Russian
Default : Нет
Forced : Нет

Аудио #4
Идентификатор : 5
Формат : DTS
Формат/Информация : Digital Theater Systems
Профиль формата : MA / Core
Идентификатор кодека : A_DTS
Продолжительность : 2 ч. 7 м.
Вид битрейта : Переменный / Постоянный
Битрейт : 4435 Кбит/сек / 1509 Кбит/сек
Каналы : 8 каналов / 6 каналов
Расположение каналов : Front: L C R, Side: L R, Back: L R, LFE / Front: L C R, Side: L R, LFE
Частота : 48,0 КГц
Частота кадров : 93,750 кадра/сек (512 SPF)
Битовая глубина : 24 бит
Метод сжатия : Без потерь / Lossy
Размер потока : 3,95 Гбайт (8%)
Заголовок : А. Гаврилов
Язык : Russian
Default : Нет
Forced : Нет

Аудио #5
Идентификатор : 6
Формат : DTS
Формат/Информация : Digital Theater Systems
Профиль формата : MA / Core
Идентификатор кодека : A_DTS
Продолжительность : 2 ч. 7 м.
Вид битрейта : Переменный / Постоянный
Битрейт : 4108 Кбит/сек / 1509 Кбит/сек
Каналы : 8 каналов / 6 каналов
Расположение каналов : Front: L C R, Side: L R, Back: L R, LFE / Front: L C R, Side: L R, LFE
Частота : 48,0 КГц
Частота кадров : 93,750 кадра/сек (512 SPF)
Битовая глубина : 24 бит
Метод сжатия : Без потерь / Lossy
Размер потока : 3,66 Гбайт (7%)
Язык : English
Default : Нет
Forced : Нет

Текст #1
Идентификатор : 7
Формат : UTF-8
Идентификатор кодека : S_TEXT/UTF8
Идентификатор кодека/Информация : UTF-8 Plain Text
Продолжительность : 2 ч. 0 м.
Битрейт : 69 бит/сек
ElementCount : 1045
Размер потока : 61,7 Кбайт (0%)
Заголовок : Киномания
Язык : Russian
Default : Нет
Forced : Нет

Текст #2
Идентификатор : 8
Формат : UTF-8
Идентификатор кодека : S_TEXT/UTF8
Идентификатор кодека/Информация : UTF-8 Plain Text
Продолжительность : 1 ч. 58 м.
Битрейт : 69 бит/сек
ElementCount : 1094
Размер потока : 60,8 Кбайт (0%)
Заголовок : Tycoon Studio
Язык : Russian
Default : Нет
Forced : Нет

Текст #3
Идентификатор : 9
Формат : UTF-8
Идентификатор кодека : S_TEXT/UTF8
Идентификатор кодека/Информация : UTF-8 Plain Text
Продолжительность : 2 ч. 4 м.
Битрейт : 37 бит/сек
ElementCount : 1106
Размер потока : 33,7 Кбайт (0%)
Заголовок : full
Язык : English
Default : Нет
Forced : Нет

Текст #4
Идентификатор : 10
Формат : UTF-8
Идентификатор кодека : S_TEXT/UTF8
Идентификатор кодека/Информация : UTF-8 Plain Text
Продолжительность : 2 ч. 6 м.
Битрейт : 45 бит/сек
ElementCount : 1437
Размер потока : 41,9 Кбайт (0%)
Заголовок : SDH
Язык : English
Default : Нет
Forced : Нет

Меню
00:00:00.000 : en:Main Titles
00:03:27.457 : en:pizza Man
00:07:24.861 : en:J. Jonah Jameson
00:08:52.782 : en:Dr. Connors
00:10:06.272 : en:"Surprise!"
00:14:28.867 : en:peter and Mj in the Backyard
00:17:07.359 : en:Mr. Ditkovich
00:18:55.467 : en:Otto Octavius
00:22:12.414 : en:Wash 'n Dry
00:22:50.452 : en:The Importance of Being Earnest
00:24:23.628 : en:Car Chase
00:26:22.038 : en:The Importance of Being on Time
00:28:27.497 : en:Web Failure
00:29:34.981 : en:The Elevator
00:31:03.569 : en:peter Calls Mj
00:33:09.779 : en:Otto's Demonstration
00:39:50.429 : en:Horror Hospital
00:41:50.632 : en:Ock Awakens to the Horror
00:43:09.002 : en:New Villain in Town
00:44:40.093 : en:Doc Ock's Lair
00:46:57.105 : en:Bank Heist
00:50:01.039 : en:Battle Building
00:53:02.137 : en:planetarium Party
00:58:04.647 : en:Spidey Crash Lands in Alley
00:59:36.155 : en:Ock Rebuilds
01:00:01.347 : en:Diagnosis
01:01:31.145 : en:Spider-Man No More
01:03:40.274 : en:"Raindrops Keep Falling on My Head"
01:05:24.295 : en:peter Attends Mj's Play
01:08:14.298 : en:Jameson Gets the Suit
01:09:40.551 : en:peter's Confession
01:13:48.298 : en:One More Little Chore
01:16:42.222 : en:peter and the Burning Building
01:19:16.042 : en:Frustration
01:21:25.839 : en:peter and Aunt May in the Backyard
01:25:16.069 : en:"My Back! My Back!"
01:26:49.245 : en:Mj Doubts John's The One
01:28:11.160 : en:"Do You Love Me, or Not?"
01:30:40.017 : en:Enter the Octopus
01:33:05.037 : en:He's Back
01:34:12.646 : en:Clock Tower Fight
01:35:10.746 : en:The Train
01:37:12.201 : en:A Train to Catch
01:39:56.281 : en:Grateful Train Passengers
01:42:38.443 : en:Harry Learns the Truth About Peter
01:44:52.661 : en:The Final Confrontation
01:48:03.476 : en:peter Appeals to Otto
01:53:07.446 : en:Web Love
01:55:30.006 : en:The Return of the Green Goblin
02:01:54.306 : en:Here Comes the Bride
02:01:54.474 : en:The Final Swing
02:02:43.981 : en:End Credits
Скриншоты

Дополнительно
ЦитатаКто-то писал:

В переводе А. Гаврилова в промежутке с 00:29:55-00:30:30 сделана вставка с перевода В. Королёва, т.к. перевод А. Гаврилова был сделан на расширенную версию, а в обычной версии там эта сцена совсем по другому переведена
 

Вложения

  • 130,8 KB Просмотры: 1
    Личеров 0
    Сидеров 0
    Файлов 1
    Объем 52 GB

Привет!

Мы группа людей которые решили помочь другим в решении их проблем, а так же пользователям с поиском самых свежих и качественных инфопродуктов. За 4 с небольшим месяца мы создали этот форум на который заходят ежедневно тысячи человек и посещаемость постоянно растёт. Мы создали панель лицензирования для защиты PHP скриптов от воровства и SEO панель для мониторинга наших сайтов и выбора верной стратегии их развития. Мы надеемся что то что мы создали пригодится Вам и возможно Вы поможете нам развиваться и совершенствоваться вместе с Вами.

Статистика форума

Темы
406.599
Сообщения
464.995
Пользователи
84.341
Новый пользователь
Лана_1209

Приложения форума для iOS и Android


У ркн там нет власти ;)
Приватные разговоры
Помощь Пользователи
    Вы не присоединились ни к одной комнате.