За последнюю неделю опубликовано 34 новых материалов.
Инструкция новичку Путеводитель по форуму Прокси для Telegram Показать подсказки , это бомба!

Скачать Человек-невидимка / The Invisible Man (2020) UHD BDRemux 2160p от селезень | 4K | HDR | D, P | Лицензия бесплатно через торрент

  • Поучаствуй (в качестве покупателя) в любых пяти совместных покупках (кроме завершённых и "Моментальных") и получи группу "Новичок" навсегда -> ссылка на раздел
  • Получай до 480 рублей за каждого приглашенного пользователя!
    представляем Вам очередное расширение партнерской программы, подробности описаны тут -> ссылка
  • 90% материалов доступно к скачиванию после простой регистрации!
    Если же ты хочешь скачивать материалы без требования оставлять отзывы то получи группу "Новичок", 10 способов повышения описаны тут -> ссылка
  • К сожалению количество битых ссылок растет и мы уже не можем их оперативно восстанавливать поэтому просим помощи у каждого нашего пользователя.
    С сегодняшнего дня, за каждую восстановленную ссылку мы заплатим Вам.
    Подробнее тут -> ссылка
  • Перенесем твои заслуги с другого ресурса!
    Мы понимаем как сложно прокачивать аккаунты на форумах, вроде раскачал аккаунт, а тут появляется ресурс в 100 раз круче но тоже с системой прокачки и снова качать аккаунт...
    Предлагаем вам перенести Ваши заслуги на другом подобном ресурсе к нам.
    Подробности описаны тут -> ссылка
  • Вы можете получать по 2.5% с каждой покупки и продажи на маркете! Подробности в теме Партнёрская программа
Если Вы не хотите скачивать, Вы всегда можетепосмотретьонлайн, просто нажмите кнопку ниже :

Открыть плеер

Torrent_Bot

Торрент-Бот
Бот форума
4 Окт 2016
93
160
20


Информация о фильме
Название: Человек-невидимка
Оригинальное название: The Invisible Man
Год выхода: 2020
Жанр: Ужасы, фантастика, триллер, детектив
Режиссер: Ли Уоннелл
В ролях: Элизабет Мосс, Оливер Джексон-Коэн, Харриет Дайер, Элдис Ходж, Сторм Рейд, Майкл Дорман, Бенедикт Харди, Рени Лим, Брайан Миган, Ник Кичи



О фильме: На первый взгляд жизнь Сесилии кажется безупречной: огромный дом, бойфренд - гениальный ученый-миллионер. Но никто не знает, что на самом деле происходит за высокими стенами роскошного особняка... И даже идеально спланированный побег оказывается ловушкой. Невозможно спрятаться от преследователя, которого не видишь.

Страна: Австралия, США, Канада, Великобритания
Студия: Goalpost Pictures, Blumhouse Productions, Dark Universe
Продолжительность: 02:04:23
Перевод(ы):
#1: Дублированный | Лицензия
Профессиональный многоголосый | HDRezka Studio

Качество: BDRemux 2160p
Видео: 3840x2160 at 23.976 fps, MPEG-H HEVC HDR Video, 60800 kbps avg
Аудио #01: 48 kHz, AC3, 5.1, 640 Kbps | Лицензия | RUS |
Аудио #02: 48 kHz, AC3, 5.1, 448 Kbps | HDRezka Studio | RUS |
Аудио #03: 48 kHz, TrueHD, 7.1, 3050 Kbps | Оригинал | ENG |
Аудио #04: 48 kHz, AC3, 5.1, 448 Kbps | Оригинал | ENG |
Субтитры: Русские (2 x Forced, full), английские



MI
General
Unique ID : 251756100288613101224945031504733086188 (0xBD667612B28873D5B6E290A956CB21EC)
Complete name : E:Video111The.Invisible.Man.2020.Lic.BDREMUX.2160p.HDR.seleZen.mkv
Format : Matroska
Format version : Version 4
File size : 56.9 GiB
Duration : 2 h 4 min
Overall bit rate mode : Variable
Overall bit rate : 65.5 Mb/s
Movie name : The Invisible Man 2020 from селезень
Encoded date : UTC 2020-06-25 13:09:26
Writing application : mkvmerge v40.0.0 ('Old Town Road + Pony') 64-bit
Writing library : libebml v1.3.9 + libmatroska v1.5.2

Video
ID : 1
Format : HEVC
Format/Info : High Efficiency Video Coding
Format profile : Main [email protected]@High
HDR format : SMPTE ST 2094 App 4, Version 1, HDR10+ Profile B compatible
Codec ID : V_MPEGH/ISO/HEVC
Duration : 2 h 4 min
Bit rate : 60.8 Mb/s
Width : 3 840 pixels
Height : 2 160 pixels
Display aspect ratio : 16:9
Frame rate mode : Constant
Frame rate : 23.976 (24000/1001) FPS
Color space : YUV
Chroma subsampling : 4:2:0 (Type 2)
Bit depth : 10 bits
Bits/(Pixel*Frame) : 0.306
Stream size : 52.8 GiB (93%)
Language : English
Default : Yes
Forced : No
Color range : Limited
Color primaries : BT.2020
Transfer characteristics : PQ
Matrix coefficients : BT.2020 non-constant
Mastering display color pri : Display P3
Mastering display luminance : min: 0.0001 cd/m2, max: 1000 cd/m2
Maximum Content Light Level : 249 cd/m2
Maximum Frame-Average Light : 37 cd/m2

Audio #1
ID : 2
Format : AC-3
Format/Info : Audio Coding 3
Commercial name : Dolby Digital
Codec ID : A_AC3
Duration : 2 h 4 min
Bit rate mode : Constant
Bit rate : 640 kb/s
Channel(s) : 6 channels
Channel layout : L R C LFE Ls Rs
Sampling rate : 48.0 kHz
Frame rate : 31.250 FPS (1536 SPF)
Compression mode : Lossy
Stream size : 569 MiB (1%)
Title : Dub [Lixense]
Language : Russian
Service kind : Complete Main
Default : Yes
Forced : Yes

Audio #2
ID : 3
Format : AC-3
Format/Info : Audio Coding 3
Commercial name : Dolby Digital
Codec ID : A_AC3
Duration : 2 h 4 min
Bit rate mode : Constant
Bit rate : 448 kb/s
Channel(s) : 6 channels
Channel layout : L R C LFE Ls Rs
Sampling rate : 48.0 kHz
Frame rate : 31.250 FPS (1536 SPF)
Compression mode : Lossy
Stream size : 399 MiB (1%)
Title : MVO [HDRezka Studio]
Language : Russian
Service kind : Complete Main
Default : No
Forced : No

Audio #3
ID : 4
Format : MLP FBA 16-ch
Format/Info : Meridian Lossless Packing FBA with 16-channel presentation
Commercial name : Dolby TrueHD with Dolby Atmos
Codec ID : A_TRUEHD
Duration : 2 h 4 min
Bit rate mode : Variable
Bit rate : 3 050 kb/s
Maximum bit rate : 5 652 kb/s
Channel(s) : 8 channels
Channel layout : L R C LFE Ls Rs Lb Rb
Sampling rate : 48.0 kHz
Frame rate : 1 200.000 FPS (40 SPF)
Compression mode : Lossless
Stream size : 2.65 GiB (5%)
Title : Original
Language : English
Default : No
Forced : No
Number of dynamic objects : 11
Bed channel count : 1 channel
Bed channel configuration : LFE

Audio #4
ID : 5
Format : AC-3
Format/Info : Audio Coding 3
Commercial name : Dolby Digital
Codec ID : A_AC3
Duration : 2 h 4 min
Bit rate mode : Constant
Bit rate : 448 kb/s
Channel(s) : 6 channels
Channel layout : L R C LFE Ls Rs
Sampling rate : 48.0 kHz
Frame rate : 31.250 FPS (1536 SPF)
Compression mode : Lossy
Stream size : 399 MiB (1%)
Language : English
Service kind : Complete Main
Default : No
Forced : No

Text #1
ID : 6
Format : UTF-8
Codec ID : S_TEXT/UTF8
Codec ID/Info : UTF-8 Plain Text
Duration : 2 h 3 min
Bit rate : 0 b/s
Count of elements : 14
Stream size : 293 Bytes (0%)
Title : Forced [License]
Language : Russian
Default : Yes
Forced : Yes

Text #2
ID : 7
Format : UTF-8
Codec ID : S_TEXT/UTF8
Codec ID/Info : UTF-8 Plain Text
Duration : 1 h 45 min
Bit rate : 0 b/s
Count of elements : 12
Stream size : 587 Bytes (0%)
Title : Forced v.2
Language : Russian
Default : No
Forced : No

Text #3
ID : 8
Format : UTF-8
Codec ID : S_TEXT/UTF8
Codec ID/Info : UTF-8 Plain Text
Duration : 1 h 53 min
Bit rate : 48 b/s
Count of elements : 958
Stream size : 40.6 KiB (0%)
Title : Full [Mallorn]
Language : Russian
Default : No
Forced : No

Text #4
ID : 9
Format : UTF-8
Codec ID : S_TEXT/UTF8
Codec ID/Info : UTF-8 Plain Text
Duration : 1 h 49 min
Bit rate : 33 b/s
Count of elements : 965
Stream size : 26.8 KiB (0%)
Title : Full
Language : English
Default : No
Forced : No

Text #5
ID : 10
Format : UTF-8
Codec ID : S_TEXT/UTF8
Codec ID/Info : UTF-8 Plain Text
Duration : 2 h 4 min
Bit rate : 43 b/s
Count of elements : 1416
Stream size : 39.3 KiB (0%)
Title : SDH
Language : English
Default : No
Forced : No

Menu
00:00:00.000 : en:Chapter 1
00:11:05.748 : en:Chapter 2
00:16:09.135 : en:Chapter 3
00:19:16.322 : en:Chapter 4
00:25:27.651 : en:Chapter 5
00:35:52.233 : en:Chapter 6
00:39:50.179 : en:Chapter 7
00:46:35.459 : en:Chapter 8
00:52:41.867 : en:Chapter 9
01:01:22.012 : en:Chapter 10
01:08:59.802 : en:Chapter 11
01:14:49.735 : en:Chapter 12
01:19:23.926 : en:Chapter 13
01:24:46.540 : en:Chapter 14
01:30:25.337 : en:Chapter 15
01:35:24.928 : en:Chapter 16
01:39:33.342 : en:Chapter 17
01:43:04.220 : en:Chapter 18
01:48:54.695 : en:Chapter 19
01:53:38.812 : en:Chapter 20

Релиз от:

 

Вложения

  • 72,1 KB Просмотры: 0
    Личеров 0
    Сидеров 0
    Файлов 1
    Объем 56,9 GB

Привет!

Мы группа людей которые решили помочь другим в решении их проблем, а так же пользователям с поиском самых свежих и качественных инфопродуктов. За 4 с небольшим месяца мы создали этот форум на который заходят ежедневно тысячи человек и посещаемость постоянно растёт. Мы создали панель лицензирования для защиты PHP скриптов от воровства и SEO панель для мониторинга наших сайтов и выбора верной стратегии их развития. Мы надеемся что то что мы создали пригодится Вам и возможно Вы поможете нам развиваться и совершенствоваться вместе с Вами.

Статистика форума

Темы
406.601
Сообщения
464.985
Пользователи
84.249
Новый пользователь
52963

Приложения форума для iOS и Android


У ркн там нет власти ;)
Приватные разговоры
Помощь Пользователи
    Вы не присоединились ни к одной комнате.