За последнюю неделю опубликовано 34 новых материалов.
Инструкция новичку Путеводитель по форуму Прокси для Telegram Показать подсказки , это бомба!

Скачать Человек, который плакал / U-neun nam-ja (2014) BDRip-AVC | L2 бесплатно через торрент

  • Поучаствуй (в качестве покупателя) в любых пяти совместных покупках (кроме завершённых и "Моментальных") и получи группу "Новичок" навсегда -> ссылка на раздел
  • Получай до 480 рублей за каждого приглашенного пользователя!
    представляем Вам очередное расширение партнерской программы, подробности описаны тут -> ссылка
  • 90% материалов доступно к скачиванию после простой регистрации!
    Если же ты хочешь скачивать материалы без требования оставлять отзывы то получи группу "Новичок", 10 способов повышения описаны тут -> ссылка
  • К сожалению количество битых ссылок растет и мы уже не можем их оперативно восстанавливать поэтому просим помощи у каждого нашего пользователя.
    С сегодняшнего дня, за каждую восстановленную ссылку мы заплатим Вам.
    Подробнее тут -> ссылка
  • Перенесем твои заслуги с другого ресурса!
    Мы понимаем как сложно прокачивать аккаунты на форумах, вроде раскачал аккаунт, а тут появляется ресурс в 100 раз круче но тоже с системой прокачки и снова качать аккаунт...
    Предлагаем вам перенести Ваши заслуги на другом подобном ресурсе к нам.
    Подробности описаны тут -> ссылка
  • Вы можете получать по 2.5% с каждой покупки и продажи на маркете! Подробности в теме Партнёрская программа
Если Вы не хотите скачивать, Вы всегда можетепосмотретьонлайн, просто нажмите кнопку ниже :

Открыть плеер

Torrent_Bot

Торрент-Бот
Бот форума
4 Окт 2016
93
160
20



Информация о фильме
Название: Человек, который плакал / Плачущий убийца
Оригинальное название: U-neun nam-ja / No Tears for the Dead
Год выхода: 2014
Жанр: Драма, боевик
Режиссер: Ли Чжон Бом
В ролях: Дон Гон Чан, Мин Хи Ким, Мин Чжэ Ким, Брайан Ти, Дженнифер Баттелл, Алессандро Куомо, Хи Вон Ким, Хан На Кан, Сон Ук Мин, Чжун Сон Ким, Ё Хан Пён, Энтони Дилио, Дэна Ли, Рич Тинг, Александр Рэйт

О фильме:
Бросив свою мать, Кон эмигрировал в Америку, чтобы стать наемным убийцей. Однажды, во время выполнения очередного заказного убийства, Кон случайно убивает молодую девчушку и страдает от чувства вины за убийство невинного ребенка. Его босс дает киллеру новое задание — убить мать девочки. Новая цель Кона — Мо Кён работает менеджером в инвестиционной компании. Убитая горем мать хоронит себя в своей работе, не зная, что находится в самом центре опасного заговора. И тогда, она встречает человека, который хочет рассказать ей правду о смерти ее ребенка. Кон решил для себя, что он не позволит своим работодателям убить Мо Кён…
Интересно
Съемки начались 30 сентября 2013 и закончились 19 февраля 2014.
Первоначально главную женскую роль должна была играть Им Су Чон, но выбыла из проекта из-за несовместимости съемочных графиков.
О релизе
Рип - Викс
Перевод - Любительское двухголосое- GREEN TEA, Ольга Гринтиева и Константин Романов
Сохранены оригинальные чаптеры как на Blu-Ray
MediaInfo
Общее
Уникальный идентификатор : 178189008829662834445728188018434599544 (0x860DF46CE4915C4298B2329BE4916A78)
Полное имя : J:Готовые новые релизыNo.Tears.for.the.Dead.2014.x264.BDRip-AVC-MediaClub.mkv
Формат : Matroska
Версия формата : Version 2
Размер файла : 2,39 Гбайт
Продолжительность : 1 ч. 56 м.
Общий поток : 2939 Кбит/сек
Название фильма : No Tears for the Dead (2014) BDRip-AVC =MediaClub= [Викс]
Дата кодирования : UTC 2015-03-06 23:45:37
Программа кодирования : mkvmerge v5.8.0 ('No Sleep / Pillow') built on Sep 2 2012 15:37:04
Библиотека кодирования : libebml v1.2.3 + libmatroska v1.3.0

Видео
Идентификатор : 1
Формат : AVC
Формат/Информация : Advanced Video Codec
Профиль формата : [email protected]
Параметр CABAC формата : Да
Параметр ReFrames формата : 10 кадров
Идентификатор кодека : V_MPEG4/ISO/AVC
Продолжительность : 1 ч. 56 м.
Битрейт : 2300 Кбит/сек
Ширина : 1024 пикселя
Высота : 428 пикселей
Соотношение сторон : 2,40:1
Режим частоты кадров : Постоянный
Частота кадров : 23,976 кадра/сек
Цветовое пространство : YUV
Субдискретизация насыщенности : 4:2:0
Битовая глубина : 8 бит
Тип развёртки : Прогрессивная
Бит/(Пиксели*Кадры) : 0.219
Размер потока : 1,82 Гбайт (76%)
Библиотека кодирования : x264 core 125 r2208 d9d2288
Настройки программы : cabac=1 / ref=10 / deblock=1:-3:-3 / analyse=0x3:0x133 / me=umh / subme=11 / psy=1 / psy_rd=1.00:0.25 / mixed_ref=1 / me_range=48 / chroma_me=1 / trellis=2 / 8x8dct=1 / cqm=0 / deadzone=21,11 / fast_pskip=0 / chroma_qp_offset=-4 / threads=12 / lookahead_threads=2 / sliced_threads=0 / nr=0 / decimate=1 / interlaced=0 / bluray_compat=0 / constrained_intra=0 / bframes=8 / b_pyramid=2 / b_adapt=2 / b_bias=0 / direct=3 / weightb=1 / open_gop=0 / weightp=2 / keyint=240 / keyint_min=24 / scenecut=40 / intra_refresh=0 / rc=2pass / mbtree=0 / bitrate=2300 / ratetol=1.0 / qcomp=0.60 / qpmin=0 / qpmax=69 / qpstep=4 / cplxblur=20.0 / qblur=0.5 / ip_ratio=1.40 / pb_ratio=1.30 / aq=1:1.00
Язык : Korean
Default : Да
Forced : Нет

Аудио #1
Идентификатор : 2
Формат : AC-3
Формат/Информация : Audio Coding 3
Расширение режима : CM (complete main)
Параметр Endianness формата : Big
Идентификатор кодека : A_AC3
Продолжительность : 1 ч. 56 м.
Вид битрейта : Постоянный
Битрейт : 192 Кбит/сек
Каналы : 2 канала
Расположение каналов : Front: L R
Частота : 48,0 КГц
Битовая глубина : 16 бит
Метод сжатия : С потерями
Размер потока : 160 Мбайт (7%)
Язык : Russian
Default : Да
Forced : Нет

Аудио #2
Идентификатор : 3
Формат : AC-3
Формат/Информация : Audio Coding 3
Расширение режима : CM (complete main)
Параметр Endianness формата : Big
Идентификатор кодека : A_AC3
Продолжительность : 1 ч. 56 м.
Вид битрейта : Постоянный
Битрейт : 448 Кбит/сек
Каналы : 6 каналов
Расположение каналов : Front: L C R, Side: L R, LFE
Частота : 48,0 КГц
Битовая глубина : 16 бит
Метод сжатия : С потерями
Размер потока : 373 Мбайт (15%)
Язык : Korean
Default : Нет
Forced : Нет

Меню
00:00:00.000 : :Chapter 01
00:06:52.787 : :Chapter 02
00:14:49.179 : :Chapter 03
00:22:54.998 : :Chapter 04
00:33:28.506 : :Chapter 05
00:43:52.379 : :Chapter 06
00:50:20.726 : :Chapter 07
00:59:48.710 : :Chapter 08
01:07:44.268 : :Chapter 09
01:14:12.990 : :Chapter 10
01:20:24.778 : :Chapter 11
01:24:04.539 : :Chapter 12
01:31:26.564 : :Chapter 13
01:38:47.421 : :Chapter 14
01:45:37.706 : :Chapter 15
01:56:24.936 : :Chapter 16


Официальный сайт

Страна: Южная Корея
Студия: CJ Entertainment, Dice film
Продолжительность: 01:56:26
Перевод: Любительский двухголосый (GREEN TEA)

Файл
Кодек: x264
Качество: BDRip-AVC
Видео: MPEG-4 AVC, 2300 Кбит/с, 1024x428, 23.976 кадр/с
Звук:
Аудио #1: Русский (AC3, 2 ch, 192 Кбит/с) / Любительский двухголосый (GREEN TEA)
Аудио #2: Корейский (AC3, 6 ch, 448 Кбит/с)

Семпл

Скриншоты





Релиз от: Рип, работа с аудио - Викс
 

Вложения

  • 12,9 KB Просмотры: 0
    Личеров 0
    Сидеров 0
    Файлов 1
    Объем 2,4 GB

Привет!

Мы группа людей которые решили помочь другим в решении их проблем, а так же пользователям с поиском самых свежих и качественных инфопродуктов. За 4 с небольшим месяца мы создали этот форум на который заходят ежедневно тысячи человек и посещаемость постоянно растёт. Мы создали панель лицензирования для защиты PHP скриптов от воровства и SEO панель для мониторинга наших сайтов и выбора верной стратегии их развития. Мы надеемся что то что мы создали пригодится Вам и возможно Вы поможете нам развиваться и совершенствоваться вместе с Вами.

Статистика форума

Темы
406.602
Сообщения
464.987
Пользователи
84.246
Новый пользователь
Jacksn

Приложения форума для iOS и Android


У ркн там нет власти ;)
Приватные разговоры
Помощь Пользователи
    Вы не присоединились ни к одной комнате.