За последнюю неделю опубликовано 57 новых материалов.
Инструкция новичку Путеводитель по форуму Прокси для Telegram Показать подсказки , это бомба!

Скачать Час истины / Hour of Lead (2020) WEBRip 720p | iTunes бесплатно через торрент

  • Поучаствуй (в качестве покупателя) в любых пяти совместных покупках (кроме завершённых и "Моментальных") и получи группу "Новичок" навсегда -> ссылка на раздел
  • Получай до 480 рублей за каждого приглашенного пользователя!
    представляем Вам очередное расширение партнерской программы, подробности описаны тут -> ссылка
  • 90% материалов доступно к скачиванию после простой регистрации!
    Если же ты хочешь скачивать материалы без требования оставлять отзывы то получи группу "Новичок", 10 способов повышения описаны тут -> ссылка
  • К сожалению количество битых ссылок растет и мы уже не можем их оперативно восстанавливать поэтому просим помощи у каждого нашего пользователя.
    С сегодняшнего дня, за каждую восстановленную ссылку мы заплатим Вам.
    Подробнее тут -> ссылка
  • Перенесем твои заслуги с другого ресурса!
    Мы понимаем как сложно прокачивать аккаунты на форумах, вроде раскачал аккаунт, а тут появляется ресурс в 100 раз круче но тоже с системой прокачки и снова качать аккаунт...
    Предлагаем вам перенести Ваши заслуги на другом подобном ресурсе к нам.
    Подробности описаны тут -> ссылка
  • Вы можете получать по 2.5% с каждой покупки и продажи на маркете! Подробности в теме Партнёрская программа
Если Вы не хотите скачивать, Вы всегда можетепосмотретьонлайн, просто нажмите кнопку ниже :

Открыть плеер

Torrent_Bot

Торрент-Бот
Бот форума
4 Окт 2016
92
163
20


Информация о фильме
Название: Час истины
Оригинальное название: Hour of Lead / The Vanished
Год выхода: 2020
Жанр: Боевик, триллер, детектив
Режиссер: Питер Фачинелли
В ролях: Энн Хеч, Томас Джейн, Джейсон Патрик, Алекс Хейдон, Питер Фачинелли, Алексей Арчер, Кристофер Венте, Джон Д. Хикман, Митчелл Л. Джонсон, Кейкей Хейм, Сэди Хейм, Ребекка Лайнс, Лили Энн Харрисон,Кертис Никулс, Лукас Бентли

О фильме:
У супружеской пары, остановившейся в кемпинге на берегу реки, бесследно пропадает дочь. Полиция не в силах отыскать девочку, но муж с женой не остановятся ни перед чем, чтобы найти своего ребенка. Однако никто не догадывается, что за этим исчезновением скрывается страшная правда.




Страна: США
Студия: Adonais Productions, Benay's Birds & Animals, Brickell & Broadbridge International
Продолжительность: 01:54:42
Перевод: Дублированный | iTunes

Файл
Кодек: AVC
Качество: WEBRip 720p | The.Vanished.2020.720p.WEBRip.DD5.1.X.264-EVO
Видео: MPEG-4 AVC, 3000 Kбит/с, 1280x536, 24.000 кадр/с
Аудио #1: Русский (АС3, 6 ch, 384 Кбит/с, 48.0 KHz) Профессиональный (дублированный) iTunes
Аудио #2: Английский (АС3, 6 ch, 384 Кбит/с, 48.0 KHz)
Субтитры: Русские (Full), английские
Трейлер
MediaInfo
Источник: The.Vanished.2020.720p.WEBRip.DD5.1.X.264-EVO
General
Unique ID : 199346623532199964275344884373611721518 (0x95F8C35E471EF7C5BF585FE9DBA1B32E)
Complete name : Hour.of.Lead.2020.WEBRip.720p.mkv
Format : Matroska
Format version : Version 4
File size : 3.02 GiB
Duration : 1 h 54 min
Overall bit rate : 3 770 kb/s
Encoded date : UTC 2020-08-29 10:53:24
Writing application : mkvmerge v7.1.0 ('Good Love') 64bit built on Jul 27 2014 13:06:55
Writing library : libebml v1.3.0 + libmatroska v1.4.1

Video
ID : 1
Format : AVC
Format/Info : Advanced Video Codec
Format profile : [email protected]
Format settings : CABAC / 4 Ref Frames
Format settings, CABAC : Yes
Format settings, Reference fra : 4 frames
Codec ID : V_MPEG4/ISO/AVC
Duration : 1 h 54 min
Bit rate : 3 000 kb/s
Width : 1 280 pixels
Height : 536 pixels
Display aspect ratio : 2.40:1
Frame rate mode : Constant
Frame rate : 24.000 FPS
Color space : YUV
Chroma subsampling : 4:2:0
Bit depth : 8 bits
Scan type : Progressive
Bits/(Pixel*Frame) : 0.182
Stream size : 2.40 GiB (80%)
Writing library : x264 core 159
Encoding settings : cabac=1 / ref=2 / deblock=1:0:0 / analyse=0x3:0x113 / me=hex / subme=6 / psy=1 / psy_rd=1.00:0.00 / mixed_ref=1 / me_range=16 / chroma_me=1 / trellis=1 / 8x8dct=1 / cqm=0 / deadzone=21,11 / fast_pskip=1 / chroma_qp_offset=-2 / threads=17 / lookahead_threads=2 / sliced_threads=0 / nr=0 / decimate=1 / interlaced=0 / bluray_compat=0 / constrained_intra=0 / bframes=3 / b_pyramid=2 / b_adapt=1 / b_bias=0 / direct=1 / weightb=1 / open_gop=0 / weightp=1 / keyint=250 / keyint_min=24 / scenecut=40 / intra_refresh=0 / rc_lookahead=30 / rc=2pass / mbtree=1 / bitrate=3000 / ratetol=1.0 / qcomp=0.60 / qpmin=0 / qpmax=69 / qpstep=4 / cplxblur=20.0 / qblur=0.5 / ip_ratio=1.40 / aq=1:1.00
Language : English
Default : Yes
Forced : No

Audio #1
ID : 2
Format : AC-3
Format/Info : Audio Coding 3
Commercial name : Dolby Digital
Codec ID : A_AC3
Duration : 1 h 54 min
Bit rate mode : Constant
Bit rate : 384 kb/s
Channel(s) : 6 channels
Channel layout : L R C LFE Ls Rs
Sampling rate : 48.0 kHz
Frame rate : 31.250 FPS (1536 SPF)
Compression mode : Lossy
Stream size : 315 MiB (10%)
Title : DUB
Language : Russian
Service kind : Complete Main
Default : Yes
Forced : No

Audio #2
ID : 3
Format : AC-3
Format/Info : Audio Coding 3
Commercial name : Dolby Digital
Codec ID : A_AC3
Duration : 1 h 54 min
Bit rate mode : Constant
Bit rate : 384 kb/s
Channel(s) : 6 channels
Channel layout : L R C LFE Ls Rs
Sampling rate : 48.0 kHz
Frame rate : 31.250 FPS (1536 SPF)
Compression mode : Lossy
Stream size : 315 MiB (10%)
Language : English
Service kind : Complete Main
Default : No
Forced : No

Text #1
ID : 4
Format : UTF-8
Codec ID : S_TEXT/UTF8
Codec ID/Info : UTF-8 Plain Text
Duration : 1 h 51 min
Bit rate : 79 b/s
Count of elements : 1266
Stream size : 65.3 KiB (0%)
Title : Full
Language : Russian
Default : No
Forced : No

Text #2
ID : 5
Format : UTF-8
Codec ID : S_TEXT/UTF8
Codec ID/Info : UTF-8 Plain Text
Duration : 1 h 49 min
Bit rate : 50 b/s
Count of elements : 1336
Stream size : 40.4 KiB (0%)
Language : English
Default : No
Forced : No

Menu
00:00:00.000 : ru:Глава 1
00:04:42.958 : ru:Глава 2
00:13:35.958 : ru:Глава 3
00:18:31.374 : ru:Глава 4
00:23:03.374 : ru:Глава 5
00:29:45.707 : ru:Глава 6
00:37:53.748 : ru:Глава 7
00:48:15.581 : ru:Глава 8
00:56:11.997 : ru:Глава 9
01:05:33.247 : ru:Глава 10
01:16:48.413 : ru:Глава 11
01:25:14.038 : ru:Глава 12
01:36:12.496 : ru:Глава 13
01:41:48.662 : ru:Глава 14
Скриншоты
 

Вложения

  • 16 KB Просмотры: 0
    Личеров 0
    Сидеров 0
    Файлов 1
    Объем 3 GB

Привет!

Мы группа людей которые решили помочь другим в решении их проблем, а так же пользователям с поиском самых свежих и качественных инфопродуктов. За 4 с небольшим месяца мы создали этот форум на который заходят ежедневно тысячи человек и посещаемость постоянно растёт. Мы создали панель лицензирования для защиты PHP скриптов от воровства и SEO панель для мониторинга наших сайтов и выбора верной стратегии их развития. Мы надеемся что то что мы создали пригодится Вам и возможно Вы поможете нам развиваться и совершенствоваться вместе с Вами.

Статистика форума

Темы
406.699
Сообщения
465.164
Пользователи
84.823
Новый пользователь
servet2510

Приложения форума для iOS и Android


У ркн там нет власти ;)
Приватные разговоры
Помощь Пользователи
    Вы не присоединились ни к одной комнате.