За последнюю неделю опубликовано 52 новых материалов.
Инструкция новичку Путеводитель по форуму Прокси для Telegram Показать подсказки , это бомба!

Скачать Царство небесное / Kingdom of Heaven (2005) HybridRip-AVC | P | Open Matte | Director's Cut бесплатно через торрент

  • Поучаствуй (в качестве покупателя) в любых пяти совместных покупках (кроме завершённых и "Моментальных") и получи группу "Новичок" навсегда -> ссылка на раздел
  • Получай до 480 рублей за каждого приглашенного пользователя!
    представляем Вам очередное расширение партнерской программы, подробности описаны тут -> ссылка
  • 90% материалов доступно к скачиванию после простой регистрации!
    Если же ты хочешь скачивать материалы без требования оставлять отзывы то получи группу "Новичок", 10 способов повышения описаны тут -> ссылка
  • К сожалению количество битых ссылок растет и мы уже не можем их оперативно восстанавливать поэтому просим помощи у каждого нашего пользователя.
    С сегодняшнего дня, за каждую восстановленную ссылку мы заплатим Вам.
    Подробнее тут -> ссылка
  • Перенесем твои заслуги с другого ресурса!
    Мы понимаем как сложно прокачивать аккаунты на форумах, вроде раскачал аккаунт, а тут появляется ресурс в 100 раз круче но тоже с системой прокачки и снова качать аккаунт...
    Предлагаем вам перенести Ваши заслуги на другом подобном ресурсе к нам.
    Подробности описаны тут -> ссылка
  • Вы можете получать по 2.5% с каждой покупки и продажи на маркете! Подробности в теме Партнёрская программа
Если Вы не хотите скачивать, Вы всегда можетепосмотретьонлайн, просто нажмите кнопку ниже :

Открыть плеер

Torrent_Bot

Торрент-Бот
Бот форума
4 Окт 2016
93
160
20



Название: Царство небесное
Оригинальное название: Kingdom of Heaven
Год выхода: 2005
Жанр: Приключения, история, боевик
Режиссер: Ридли Скотт
В ролях: Орландо Блум, Ева Грин, Лиам Нисон, Дэвид Тьюлис, Джереми Айронс, Эрик Эбони, Натали Кокс, Филип Гленистер, Мартин Хэнкок, Бронсон Уэбб, Кевин МакКидд, Николай Костер-Валдау, Стивен Робертсон, Мартон Чокаш, Александр Сиддинг, Велибор Топик, Майкл Шэйффер, Майкл Шин, Брендан Глисон, Нассер Мемарзиа, Джоко Ахола

О фильме:
Франция, конец XII века. Кузнец Балиан узнает, что приходится незаконнорожденным сыном крестоносцу сэру Годфри. После смерти жены его ничто не держит во Франции, и Балиан присоединяется к отцовскому походу в Святую Землю, хотя и не отличается пылкой верой в Бога. К несчастью, в пути сзр Годфри гибнет, едва успев посвятить сына в рыцари. Прибыв в Иерусалим, Балиан понимает, что в придачу к поместью ему досталось обязанность участвовать в запутанной местной политике. Конфликты интересов рвут на части слабое государство, а мусульманский владыка Саладин готовится вернуть себе Священный Город.



Страна: США, Испания
Выпущено: 20th Century Fox Film Corporation, Babelsberg Film GmbH, Scott Free Productions
Продолжительность: 03:09:33
Перевод: Профессиональный (многоголосый закадровый)

Формат: MKV
Качество: HybridRip-AVC
Видео: AVC/H.264, 1024x576, 23.976 fps, ~2000 Kbps
Аудио 1: AC3, 6 ch, 448 kbps - Русский (MVO Киномания)
Аудио 2: AC3, 6 ch, 448 kbps - Английский
Субтитры: русские (форс, полные), английские

MediaInfo
x264 [info]: frame I:2525 Avg QP:16.19 size: 77343
x264 [info]: frame P:75158 Avg QP:19.91 size: 20082
x264 [info]: frame B:194985 Avg QP:21.46 size: 5838
x264 [info]: consecutive B-frames: 7.2% 4.7% 10.9% 23.3% 21.2% 27.5% 3.0% 1.2% 1.0%

General
Unique ID : 193815473341874357088790620362048360736 (0x91CF809BF0E2A2F1ACD8C5D7B9955120)
Complete name : D:Kingdom of Heaven (2005) Director's Cut Open Matte.mkv
Format : Matroska
Format version : Version 4
File size : 3.85 GiB
Duration : 3 h 9 min
Overall bit rate : 2 907 kb/s
Movie name : Царство небесное / Kingdom of Heaven (2005) (Director's Cut) (Open Matte) - #LORDKILL#
Encoded date : UTC 2020-08-21 14:57:23
Writing application : mkvmerge v8.3.0 ('Over the Horizon') 32bit
Writing library : libebml v1.3.1 + libmatroska v1.4.2

Video
ID : 1
Format : AVC
Format/Info : Advanced Video Codec
Format profile : [email protected]
Format settings : CABAC / 11 Ref Frames
Format settings, CABAC : Yes
Format settings, Reference : 11 frames
Codec ID : V_MPEG4/ISO/AVC
Duration : 3 h 9 min
Bit rate : 2 000 kb/s
Width : 1 024 pixels
Height : 576 pixels
Display aspect ratio : 16:9
Frame rate mode : Constant
Frame rate : 23.976 (24000/1001) FPS
Color space : YUV
Chroma subsampling : 4:2:0
Bit depth : 8 bits
Scan type : Progressive
Bits/(Pixel*Frame) : 0.141
Stream size : 2.66 GiB (69%)
Writing library : x264 core 159 r2991 1771b55
Encoding settings : cabac=1 / ref=11 / deblock=1:-2:-2 / analyse=0x3:0x113 / me=umh / subme=10 / psy=1 / psy_rd=1.00:0.20 / mixed_ref=1 / me_range=32 / chroma_me=1 / trellis=2 / 8x8dct=1 / cqm=0 / deadzone=21,11 / fast_pskip=0 / chroma_qp_offset=-3 / threads=12 / lookahead_threads=2 / sliced_threads=0 / nr=0 / decimate=1 / interlaced=0 / bluray_compat=0 / constrained_intra=0 / bframes=8 / b_pyramid=2 / b_adapt=2 / b_bias=0 / direct=3 / weightb=1 / open_gop=0 / weightp=2 / keyint=240 / keyint_min=23 / scenecut=40 / intra_refresh=0 / rc=2pass / mbtree=0 / bitrate=2000 / ratetol=1.0 / qcomp=0.60 / qpmin=0 / qpmax=69 / qpstep=4 / cplxblur=20.0 / qblur=0.5 / ip_ratio=1.40 / pb_ratio=1.30 / aq=1:1.00
Default : Yes
Forced : No

Audio #1
ID : 2
Format : AC-3
Format/Info : Audio Coding 3
Commercial name : Dolby Digital
Codec ID : A_AC3
Duration : 3 h 9 min
Bit rate mode : Constant
Bit rate : 448 kb/s
Channel(s) : 6 channels
Channel layout : L R C LFE Ls Rs
Sampling rate : 48.0 kHz
Frame rate : 31.250 FPS (1536 SPF)
Bit depth : 16 bits
Compression mode : Lossy
Stream size : 607 MiB (15%)
Title : MVO Киномания
Language : Russian
Service kind : Complete Main
Default : Yes
Forced : No

Audio #2
ID : 3
Format : AC-3
Format/Info : Audio Coding 3
Commercial name : Dolby Digital
Codec ID : A_AC3
Duration : 3 h 9 min
Bit rate mode : Constant
Bit rate : 448 kb/s
Channel(s) : 6 channels
Channel layout : L R C LFE Ls Rs
Sampling rate : 48.0 kHz
Frame rate : 31.250 FPS (1536 SPF)
Bit depth : 16 bits
Compression mode : Lossy
Stream size : 607 MiB (15%)
Language : English
Service kind : Complete Main
Default : No
Forced : No

Text #1
ID : 4
Format : UTF-8
Codec ID : S_TEXT/UTF8
Codec ID/Info : UTF-8 Plain Text
Duration : 4 min 48 s
Bit rate : 2 b/s
Count of elements : 2
Stream size : 99.0 Bytes (0%)
Title : Forced
Language : Russian
Default : Yes
Forced : No

Text #2
ID : 5
Format : UTF-8
Codec ID : S_TEXT/UTF8
Codec ID/Info : UTF-8 Plain Text
Duration : 3 h 8 min
Bit rate : 47 b/s
Count of elements : 1036
Stream size : 66.1 KiB (0%)
Title : Full 1
Language : Russian
Default : No
Forced : No

Text #3
ID : 6
Format : UTF-8
Codec ID : S_TEXT/UTF8
Codec ID/Info : UTF-8 Plain Text
Duration : 3 h 1 min
Bit rate : 44 b/s
Count of elements : 1252
Stream size : 59.6 KiB (0%)
Title : Full 2
Language : Russian
Default : No
Forced : No

Text #4
ID : 7
Format : UTF-8
Codec ID : S_TEXT/UTF8
Codec ID/Info : UTF-8 Plain Text
Duration : 2 h 56 min
Bit rate : 28 b/s
Count of elements : 1254
Stream size : 36.6 KiB (0%)
Language : English
Default : No
Forced : No

Menu
00:00:00.000 : en:Crossroads
00:04:30.479 : en:Crusaders
00:07:23.276 : en:Without an Heir
00:09:22.353 : en:Sin
00:11:37.572 : en:Old Memories
00:14:37.835 : en:The Baron's Son
00:18:15.136 : en:In Hell
00:20:38.070 : en:To Erase My Sins
00:22:03.280 : en:The Guard of the Hawk
00:24:18.540 : en:Whoever Dies Here Today
00:30:44.509 : en:The Path to Heaven
00:32:36.621 : en:A Better World
00:34:52.507 : en:Remember That Name
00:36:34.150 : en:The Knight's Oath
00:39:15.520 : en:perilous Journey
00:41:58.349 : en:The Saracen's Challenge
00:45:55.044 : en:Jerusalem
00:49:07.236 : en:The New Baron
00:51:36.885 : en:Sibylla
00:54:18.130 : en:The Marshall of Jerusalem
00:56:36.310 : en:His Father's Son
00:58:36.054 : en:At the King's Table
01:01:15.547 : en:The Leper King
01:05:47.318 : en:Ibelin
01:10:11.582 : en:Guests of the House
01:16:09.940 : en:There Is Only Light
01:18:43.177 : en:God Wills It
01:20:08.887 : en:Tokens
01:21:28.801 : en:Blasphemy
01:24:34.361 : en:Defenders of Kerak
01:29:34.202 : en:The Friendly Enemy
01:30:48.610 : en:Jerusalem Has Come
01:34:07.267 : en:The Kiss of Peace
01:37:13.244 : en:I Quake for Islam
01:39:36.929 : en:power
01:42:48.704 : en:An Understanding
01:45:14.308 : en:Conscience or Nothing
01:50:21.698 : en:The Final Dream
01:54:51.802 : en:Long Live the King
01:56:28.356 : en:The Reckoning
01:58:05.787 : en:A Mother's Pain
02:02:01.272 : en:Templars' Attack
02:04:07.148 : en:Queen of Jerusalem
02:04:57.156 : en:Beloved Sister
02:07:43.030 : en:He Is Waiting
02:11:44.313 : en:The Road to Hattin
02:13:25.915 : en:A King's Example
02:16:15.834 : en:Four Days
02:18:08.655 : en:To Defend Jerusalem
02:21:55.757 : en:Rise a Knight
02:24:17.190 : en:Siege
02:28:54.134 : en:Retaliation
02:34:58.080 : en:The Third Day
02:37:20.848 : en:God Will Understand
02:39:19.008 : en:The Door Into Jerusalem
02:41:27.678 : en:Final Stand
02:45:06.814 : en:Nothing and Everything
02:50:52.576 : en:The Perfect Knight
02:53:08.253 : en:Leaving Jerusalem
02:56:02.552 : en:A Queen Never Walks
02:57:19.504 : en:I Am the Blacksmith
03:00:35.533 : en:Epilogue/End Titles
Примечание & Сравнения:
Гибрид получен путем автоматического наложения широкоэкранного BD Remux (2.34:1) поверх HDTV 1HD (16:9) плагином AutoOverlay. Логотип убран с помощью WEB-DL. Цвет гибрида усреднен между HDTV и WEB-DL. Примерно 10 минут Open Matte-сцен театральной версии пришлось удалить в процессе монтажа этой версии фильма.

Сравнения WEB-DL - HDTV - TC BD Remux - DC BD Remux - Hybrid Open Matte




Скриншоты
 

Вложения

  • 20,2 KB Просмотры: 0
    Личеров 0
    Сидеров 0
    Файлов 1
    Объем 3,8 GB

Привет!

Мы группа людей которые решили помочь другим в решении их проблем, а так же пользователям с поиском самых свежих и качественных инфопродуктов. За 4 с небольшим месяца мы создали этот форум на который заходят ежедневно тысячи человек и посещаемость постоянно растёт. Мы создали панель лицензирования для защиты PHP скриптов от воровства и SEO панель для мониторинга наших сайтов и выбора верной стратегии их развития. Мы надеемся что то что мы создали пригодится Вам и возможно Вы поможете нам развиваться и совершенствоваться вместе с Вами.

Статистика форума

Темы
406.648
Сообщения
465.113
Пользователи
84.625
Новый пользователь
kris_kelt

Приложения форума для iOS и Android


У ркн там нет власти ;)
Приватные разговоры
Помощь Пользователи
    Вы не присоединились ни к одной комнате.